Часовой пояс: UTC + 3 часа




Начать новую тему Ответить на тему  [ 1 сообщение ] 
Автор Сообщение
СообщениеДобавлено: 2014-12-16 08:09 
Не в сети
Администратор
Администратор
Аватара пользователя
Раздал: 51.58 ТБ
Скачал: 620.08 ГБ
Ратио: 85.182


Зарегистрирован: 2010-11-09 02:24
Сообщения: 44652
Откуда: Земля Санникова
Лёгкие деньги / Easy Money

#777
Страна: США
Жанр: Комедия
Год выпуска: 1983
Продолжительность: 01:35:36

Перевод: Профессиональный (двухголосый закадровый) студия "Ракурс" для Екатеринбург Арт Home Video
Текст читали: Виктор Петров и Наталья Гурзо
Cубтитры: нет
Оригинальная аудиодорожка: нет

Режиссер: Джеймс Синьорелли / James Signorelli

В ролях: Родни Дейнджерфилд, Джо Пеши, Фрэнк Симпсон, Педро Е. Окампо-ст., Альфред Де Ла Фуэнте, Эрик Ван Валкенбург, Кэндис Аззара, Вэл Эвери, Тэйлор Негрон, Лили Хейден, Том Юэлл, Дженнифер Джейсон Ли, Джефф Олтмэн, Дэвид Васкес, Кимберли МакАртур, Арч Джонсон, Дэннис Блэр, Мэри Пэт Глисон, Анджела Пьетропинто, Филомена Спаньоло, Питер Д`Арси, Полли Магаро, Хэрш Нэйэр, Дик Марр

Описание: Веселая комедия о детском фотографе Монти Капулетти (Родни Данджерфилд). Монти обладает множеством дурных привычек — курит, пьёт, увлекается азартными играми, не прочь приударить за женщинами. Одновременно он отец семейства. Неожиданно приходит известие, что его богатая тёща погибла в авиакатастрофе. В соответствии с завещанием, семье Монти достанутся 10 миллионов долларов, но только в том случае, если он сумеет отказаться от всех своих дурных привычек на время одного года, а также сбросит лишний вес... Данджерфилд очень смешон в этой роли.

Доп. информация: За русские дорогу спасибо Fikaloid. Работа со звуком благодарю JUSTKANT

Сэмпл: http://multi-up.com/952810

Качество видео: DVDRip
Спасибо Sergei7721
Формат видео: AVI

Видео: XviD build 50, 704x384 (1.85:1), 23.976 fps, 1948 kbps avg
Аудио: Russian AC3 Dolby Digital, 48 kHz, 2/0 (L,R) ch, 192.00 kbps avg

MediaInfo
Complete name : D:\Easy Money_1983 DVDRip\Easy Money.1983.DV0_EA.DVDRip.avi
Format : AVI
Format/Info : Audio Video Interleave
File size : 1.44 GiB
Duration : 1h 35mn
Overall bit rate : 2 158 Kbps
Writing application : VirtualDubModRus 1.5.10.2 (build 2542/release)
Writing library : VirtualDubMod build 2542/release

Video
ID : 0
Format : MPEG-4 Visual
Format profile : Simple@L3
Format settings, BVOP : No
Format settings, QPel : No
Format settings, GMC : No warppoints
Format settings, Matrix : Default (H.263)
Codec ID : XVID
Codec ID/Hint : XviD
Duration : 1h 35mn
Bit rate : 1 957 Kbps
Width : 704 pixels
Height : 384 pixels
Display aspect ratio : 1.85:1
Frame rate : 23.976 fps
Color space : YUV
Chroma subsampling : 4:2:0
Bit depth : 8 bits
Scan type : Progressive
Compression mode : Lossy
Bits/(Pixel*Frame) : 0.302
Stream size : 1.31 GiB (91%)
Writing library : XviD 1.1.2 (UTC 2006-11-01)

Audio
ID : 1
Format : AC-3
Format/Info : Audio Coding 3
Mode extension : CM (complete main)
Format settings, Endianness : Big
Codec ID : 2000
Duration : 1h 35mn
Bit rate mode : Constant
Bit rate : 192 Kbps
Channel count : 2 channels
Channel positions : Front: L R
Sampling rate : 48.0 KHz
Bit depth : 16 bits
Compression mode : Lossy
Stream size : 131 MiB (9%)
Alignment : Split accross interleaves
Interleave, duration : 42 ms (1.00 video frame)
Interleave, preload duration : 500 ms


Скриншоты



У вас нет необходимых прав для просмотра вложений в этом сообщении.

_________________


Вернуться к началу
 Профиль  
Ответить с цитатой  
  • Торрент
Автор: oartemka178 Хэш: ---
Добавлен: 2014-12-16 08:05 Приватный: Нет (DHT включён)
Статус:
---
Размер: 1.44 ГБ (1 547 550 720 байт)
Изменил:
---
Скачали: 0 (Раздающих: 0%)
Причина:
---
Здоровье: 0%
Сидеров: 0 Личеров: 0
Скорость раздачи: 0 байт/сек Скорость скачивания: 0 байт/сек
Последний сидер: Нет Последний личер: Нет
Для скачивания торрента необходимо зарегистрироваться или войти на трекер.
Показать сообщения за:  Поле сортировки  
Начать новую тему Ответить на тему  [ 1 сообщение ] 

Часовой пояс: UTC + 3 часа


Кто сейчас на конференции

Сейчас этот форум просматривают: нет зарегистрированных пользователей и гости: 1


Вы не можете начинать темы
Вы не можете отвечать на сообщения
Вы не можете редактировать свои сообщения
Вы не можете удалять свои сообщения
Вы не можете добавлять вложения

Найти:
Перейти:  
cron
Переместиться наверх