Часовой пояс: UTC + 3 часа




Начать новую тему Ответить на тему  [ 1 сообщение ] 
Автор Сообщение
СообщениеДобавлено: 2014-12-16 08:09 
Не в сети
Администратор
Администратор
Аватара пользователя
Раздал: 51.58 ТБ
Скачал: 620.08 ГБ
Ратио: 85.182


Зарегистрирован: 2010-11-09 02:24
Сообщения: 44604
Откуда: Земля Санникова
Легион высаживается в Кольвези / La lgion saute sur Kolwezi

#777
Страна: Франция
Жанр: Драма, военный, приключения
Год выпуска: 1980
Продолжительность: 01:35:52

Перевод: Одноголосый закадровый SATKUR
Cубтитры: нет
Режиссер: Рауль Кутар / Raoul Coutard

В ролях: Бруно Кремер, Мимзи Фармер, Джулиано Джемма, Лоран Мале, Жак Перрен, Пьер Ванек, Жан-Клод Буллон, Жерар Эссомба, Роберт Этчеверри, Лор Мутуссами

Описание: Фильм рассказывает о спасательной военной операции Французского Иностранного Легиона в Кольвези (Заир) в 1978 году. Снят по вышедшей в 1979 году книге Пьера Сержана (Pierre Sergent) с одноимённым названием. Май 1978 года. Катангийские повстанцы, пришедшие из Замбии и Анголы, атаковали заирский гарнизон, захватили город Кольвези и отрезали его от остального мира. В городе находились 3000 европейцев, работавших на предприятиях по добыче полезных ископаемых - в основном, инженеры, техники и их семьи из Бельгии и Франции. Те, кто избежал первой волны бесчинств, стали заложниками в отеле "Импала". Пьяные подростки-боевики совершали групповые насилия над ними и над черным населением, и линчевали каждого, кого хотели обвинить в принадлежности к "белым наёмникам" или "черным коллаборационистам". Франция и Бельгия вынуждены были реагировать. Но в ожидании санкции ООН и окончания политических переговоров, солдаты вынуждены были медлить, и резня продолжалась.

Доп. информация: Озвучено по субтитрам перевода Lisochek (Lisok)
13.02.2014 - перезалит, согласно пожеланиям лучше смикширован звук, оригинальный звук фильма теперь слышен громче.

Сэмпл:http://multi-up.com/950621 - перезалит с лучшим микшированием звука (ver2)

Качество видео: DVDRip
Формат видео: AVI

Видео: XviD, 1323 Кбит/с, 624х384
Аудио 1: 48 kHz, AC3 Dolby Digital, 2/0 (L,R) ch, ~192.00 kbps - русский
Аудио 2: 48 kHz, AC3 Dolby Digital, 2/0 (L,R) ch, ~192.00 kbps - французкий

MediaInfo
Общее
Полное имя : D:\FILM\F-2014\Disk-24\Legion.vysajivaetsa.v.Kolwezi.1980.Fr.[vo.satkur+fr].AC3.Rus\Legion.vysajivaetsa.v.Kolwezi.1980.Fr.[vo.satkur+fr].AC3.Rus.avi
Формат : AVI
Формат/Информация : Audio Video Interleave
Размер файла : 1,15 Гбайт
Продолжительность : 1 ч. 35 м.
Общий поток : 1719 Кбит/сек
Программа кодирования : VirtualDubModRus 1.5.10.2 (build 2542/release)
Библиотека кодирования : VirtualDubMod build 2542/release

Видео
Идентификатор : 0
Формат : MPEG-4 Visual
Профиль формата : Simple@L1
Параметр BVOP формата : Нет
Параметр QPel формата : Нет
Параметр GMC формата : Без точки перехода
Параметр матрицы формата : Default (H.263)
Идентификатор кодека : XVID
Идентификатор кодека/Подсказка : XviD
Продолжительность : 1 ч. 35 м.
Битрейт : 1320 Кбит/сек
Ширина : 624 пикселя
Высота : 384 пикселя
Соотношение сторон : 1,625
Частота кадров : 25,000 кадров/сек
Цветовое пространство : YUV
Субдискретизация насыщенности : 4:2:0
Битовая глубина : 8 бит
Тип развёртки : Прогрессивная
Метод сжатия : С потерями
Бит/(Пиксели*Кадры) : 0.220
Размер потока : 905 Мбайт (77%)
Библиотека кодирования : Lavc52.84.0

Аудио #1
Идентификатор : 1
Формат : AC-3
Формат/Информация : Audio Coding 3
Расширение режима : CM (complete main)
Параметр Endianness формата : Big
Идентификатор кодека : 2000
Продолжительность : 1 ч. 35 м.
Вид битрейта : Постоянный
Битрейт : 192 Кбит/сек
Каналы : 2 канала
Расположение каналов : Front: L R
Частота : 48,0 КГц
Битовая глубина : 16 бит
Метод сжатия : С потерями
Размер потока : 132 Мбайт (11%)
Выравнивание : Разделение по промежуткам
Продолжительность промежутка : 40 мс. (1,00 видеокадр)
Время предзагрузки промежутка : 500 мс.

Аудио #2
Идентификатор : 2
Формат : AC-3
Формат/Информация : Audio Coding 3
Расширение режима : CM (complete main)
Параметр Endianness формата : Big
Идентификатор кодека : 2000
Продолжительность : 1 ч. 35 м.
Вид битрейта : Постоянный
Битрейт : 192 Кбит/сек
Каналы : 2 канала
Расположение каналов : Front: L R
Частота : 48,0 КГц
Битовая глубина : 16 бит
Метод сжатия : С потерями
Размер потока : 132 Мбайт (11%)
Выравнивание : Разделение по промежуткам
Продолжительность промежутка : 40 мс. (1,00 видеокадр)
Время предзагрузки промежутка : 500 мс.


Скриншот c названием фильма



Скриншоты



У вас нет необходимых прав для просмотра вложений в этом сообщении.

_________________


Вернуться к началу
 Профиль  
Ответить с цитатой  
  • Торрент
Автор: oartemka178 Хэш: ---
Добавлен: 2014-12-16 08:05 Приватный: Нет (DHT включён)
Статус:
---
Размер: 1.15 ГБ (1 235 613 696 байт)
Изменил:
---
Скачали: 0 (Раздающих: 0%)
Причина:
---
Здоровье: 0%
Сидеров: 0 Личеров: 0
Скорость раздачи: 0 байт/сек Скорость скачивания: 0 байт/сек
Последний сидер: Нет Последний личер: Нет
Для скачивания торрента необходимо зарегистрироваться или войти на трекер.
Показать сообщения за:  Поле сортировки  
Начать новую тему Ответить на тему  [ 1 сообщение ] 

Часовой пояс: UTC + 3 часа


Кто сейчас на конференции

Сейчас этот форум просматривают: нет зарегистрированных пользователей и гости: 1


Вы не можете начинать темы
Вы не можете отвечать на сообщения
Вы не можете редактировать свои сообщения
Вы не можете удалять свои сообщения
Вы не можете добавлять вложения

Найти:
Перейти:  
cron
Переместиться наверх