Часовой пояс: UTC + 3 часа




Начать новую тему Ответить на тему  [ 1 сообщение ] 
Автор Сообщение
СообщениеДобавлено: 2014-12-16 08:10 
Не в сети
Администратор
Администратор
Аватара пользователя
Раздал: 51.58 ТБ
Скачал: 620.08 ГБ
Ратио: 85.182


Зарегистрирован: 2010-11-09 02:24
Сообщения: 44604
Откуда: Земля Санникова
Крутые парни / Крутые ребята / Крутые мужики / Tough Guys

#777
Страна: США
Жанр: Криминальная комедия
Год выпуска: 1986
Продолжительность: 01:39:17

Перевод: Профессиональный (дублированный) РТР
Cубтитры: нет
Оригинальная аудиодорожка: нет

Режиссер: Джефф Кэнью / Jeff Kanew

В ролях: Бёрт Ланкастер, Керк Дуглас, Чарлз Дёрнинг, Дэна Карви, Дарлэнн Флюгель, Эли Уоллах, Монти Эш, Билли Барти, Симми Боу, Дарлен Конли, Натан Дэвис, Мэттью Фэйсон, Корки Форд, Рик Гарсиа, Грэм Джервис, Джинн Мори, Скотт Неме, Эрни Сабелла, Хилари Шепард, Джэйк Стейнфелд, Рон Райан, Рут Де Соса, Джон Мариано, Стивен Мемел, Ларри Минтц, Дик Хэнкок, Кеннет Рэнсом, Майкл Френсис Келли, Хьюго Стэнгер, Фил Калотта, Дональд Томпсон, Джефф Ливайн, Тодд Хэллоуэлл, Стив Гринштейн, Джон Деми, Эллен Доу, Грант Александр, Скэнлон Гэйл, Джеймс Фрэнк Кларк, Скип Стеллрехт, Дэвид Майкл О'Нейлл, Джеймс Дит, Хэрри Хаусс, Денвер Маттсон, Фли, Энтони Кидис, Сет Кауфман, Клифф Мартинес, Томас Ф. Магвайр, Рик Савайя

Описание: 72-летний Гарри Дойл (Берт Ланкастер) и 67-летний Арчи Лонг (Кирк Дуглас) выходят из тюрьмы после совместной 30-летней отсидки. Попробовав несколько честных способов зарабатывания денег, они все-таки решают заняться тем, что получается у них лучше всего – налёты и ограбления. А угнать решили тот самый поезд, за ограбление которого их посадили 30 лет назад.

Работа со звуком alex7691

Качество видео: DVDRip Источник
Формат видео: AVI

Видео: 704x288 (2.44:1), 25 fps, XviD MPEG-4 ~1569 kbps avg, 0.31 bit/pixel
Аудио: 48 kHz, MPEG Layer 3, 2 ch, ~128.00 kbps avg
Аудио 2: 48 kHz, MPEG Layer 3, 2 ch, ~192.00 kbps avg

MediaInfo
General
Complete name : C:\Крутые парни.avi
Format : AVI
Format/Info : Audio Video Interleave
File size : 1.32 GiB
Duration : 1h 39mn
Overall bit rate : 1 905 Kbps
Writing application : VirtualDubMod 1.5.10.2 (build 2540/release)
Writing library : VirtualDubMod build 2540/release

Video
ID : 0
Format : MPEG-4 Visual
Format profile : Advanced Simple@L5
Format settings, BVOP : 1
Format settings, QPel : No
Format settings, GMC : No warppoints
Format settings, Matrix : Default (H.263)
Muxing mode : Packed bitstream
Codec ID : XVID
Codec ID/Hint : XviD
Duration : 1h 39mn
Bit rate : 1 571 Kbps
Width : 704 pixels
Height : 288 pixels
Display aspect ratio : 2.40:1
Frame rate : 25.000 fps
Color space : YUV
Chroma subsampling : 4:2:0
Bit depth : 8 bits
Scan type : Progressive
Compression mode : Lossy
Bits/(Pixel*Frame) : 0.310
Stream size : 1.09 GiB (82%)
Writing library : XviD 1.2.0.dev47 (UTC 2006-11-01)

Audio #1
ID : 1
Format : MPEG Audio
Format version : Version 1
Format profile : Layer 3
Mode : Joint stereo
Mode extension : MS Stereo
Codec ID : 55
Codec ID/Hint : MP3
Duration : 1h 39mn
Bit rate mode : Constant
Bit rate : 128 Kbps
Channel(s) : 2 channels
Sampling rate : 48.0 KHz
Compression mode : Lossy
Stream size : 90.9 MiB (7%)
Alignment : Aligned on interleaves
Interleave, duration : 40 ms (1.00 video frame)
Interleave, preload duration : 504 ms

Audio #2
ID : 2
Format : MPEG Audio
Format version : Version 1
Format profile : Layer 3
Codec ID : 55
Codec ID/Hint : MP3
Duration : 1h 39mn
Bit rate mode : Constant
Bit rate : 192 Kbps
Channel(s) : 2 channels
Sampling rate : 48.0 KHz
Compression mode : Lossy
Stream size : 136 MiB (10%)
Alignment : Aligned on interleaves
Interleave, duration : 40 ms (1.00 video frame)
Interleave, preload duration : 504 ms
Writing library : LAME3.98r
Encoding settings : -m s -V 4 -q 9 -lowpass 18.6 -b 192


Скриншоты



У вас нет необходимых прав для просмотра вложений в этом сообщении.

_________________


Вернуться к началу
 Профиль  
Ответить с цитатой  
  • Торрент
Автор: oartemka178 Хэш: ---
Добавлен: 2014-12-16 08:05 Приватный: Нет (DHT включён)
Статус:
---
Размер: 1.32 ГБ (1 418 680 320 байт)
Изменил:
---
Скачали: 0 (Раздающих: 0%)
Причина:
---
Здоровье: 0%
Сидеров: 0 Личеров: 0
Скорость раздачи: 0 байт/сек Скорость скачивания: 0 байт/сек
Последний сидер: Нет Последний личер: Нет
Для скачивания торрента необходимо зарегистрироваться или войти на трекер.
Показать сообщения за:  Поле сортировки  
Начать новую тему Ответить на тему  [ 1 сообщение ] 

Часовой пояс: UTC + 3 часа


Кто сейчас на конференции

Сейчас этот форум просматривают: нет зарегистрированных пользователей и гости: 1


Вы не можете начинать темы
Вы не можете отвечать на сообщения
Вы не можете редактировать свои сообщения
Вы не можете удалять свои сообщения
Вы не можете добавлять вложения

Найти:
Перейти:  
cron
Переместиться наверх