Часовой пояс: UTC + 3 часа




Начать новую тему Ответить на тему  [ 1 сообщение ] 
Автор Сообщение
СообщениеДобавлено: 2014-12-16 08:10 
Не в сети
Администратор
Администратор
Аватара пользователя
Раздал: 51.58 ТБ
Скачал: 620.08 ГБ
Ратио: 85.182


Зарегистрирован: 2010-11-09 02:24
Сообщения: 44604
Откуда: Земля Санникова
[font='Times New Roman']Охота за «Красным Октябрем» / The Hunt for Red October[/font]



#777
Год выпуска: 1990
Выпущено: США / Paramount Pictures
Жанр: боевик, триллер, приключения
Продолжительность: 02:15:08
Перевод: Профессиональный (многоголосый закадровый) BD CEE
Cубтитры: нет


Режиссер:
Джон МакТирнан / John McTiernan


В ролях:
Шон Коннери (Marko Ramius), Алек Болдуин (Jack Ryan), Скотт Гленн (Bart Mancuso), Сэм Нил (Captain Vasili Borodin), Джеймс Эрл Джонс (Admiral Greer), Джосс Экленд (Andrei Lysenko), Ричард Джордан (Jeffrey Pelt), Питер Фёрт (Ivan Putin), Тим Карри (Dr. Yevgeniy Petrov), Кортни Б. Вэнс (Seaman Jones)


Описание:
Новейшая советская атомная подводная лодка «Красный Октябрь» способна нарушить хрупкий стратегический баланс между США и СССР. Ее капитан Рамиус решает передать субмарину в руки американцев.


Релиз группы | IMDB | КиноПоиск |


Тип релиза: BDRip [BDRemux] спасибо «Тарантиныч»
Контейнер: AVI

Видео: 720x304 (2.37:1), 23.976 fps, XviD build 73 ~1343 kbps avg, 0.26 bit/pixel
Аудио: 48 kHz, AC3 Dolby Digital, 2/0 (L,R) ch, ~192.00 kbps avg





Скриншоты



MediaInfo


Код:
General
Complete name                            : D:\Ohota_za_Krasnym_Oktyabrem_1990_BDRip_by_Dalemake.avi
Format                                   : AVI
Format/Info                              : Audio Video Interleave
File size                                : 1.46 GiB
Duration                                 : 2h 15mn
Overall bit rate                         : 1 545 Kbps
Writing application                      : VirtualDubMod 1.5.10.3 | www.virtualdub-fr.org || (build 2550/release)
Writing library                          : VirtualDubMod build 2550/release

Video
ID                                       : 0
Format                                   : MPEG-4 Visual
Format profile                           : Advanced Simple@L5
Format settings, BVOP                    : 1
Format settings, QPel                    : No
Format settings, GMC                     : No warppoints
Format settings, Matrix                  : Custom
Codec ID                                 : XVID
Codec ID/Hint                            : XviD
Duration                                 : 2h 15mn
Bit rate                                 : 1 344 Kbps
Width                                    : 720 pixels
Height                                   : 304 pixels
Display aspect ratio                     : 2.35:1
Frame rate                               : 23.976 fps
Color space                              : YUV
Chroma subsampling                       : 4:2:0
Bit depth                                : 8 bits
Scan type                                : Progressive
Compression mode                         : Lossy
Bits/(Pixel*Frame)                       : 0.256
Stream size                              : 1.27 GiB (87%)
Writing library                          : XviD 73

Audio
ID                                       : 1
Format                                   : AC-3
Format/Info                              : Audio Coding 3
Mode extension                           : CM (complete main)
Format settings, Endianness              : Big
Codec ID                                 : 2000
Duration                                 : 2h 15mn
Bit rate mode                            : Constant
Bit rate                                 : 192 Kbps
Channel(s)                               : 2 channels
Channel positions                        : Front: L R
Sampling rate                            : 48.0 KHz
Bit depth                                : 16 bits
Compression mode                         : Lossy
Stream size                              : 186 MiB (12%)
Alignment                                : Split accross interleaves
Interleave, duration                     : 42 ms (1.00 video frame)
Interleave, preload duration             : 500 ms




Сравнение
http://rustrek.ru/viewtopic.php?t=2190598
http://screenshotcomparison.com/comparison/59453

у конкурента писал(а):
Цитата:
Format settings, BVOP : 3







У вас нет необходимых прав для просмотра вложений в этом сообщении.

_________________


Вернуться к началу
 Профиль  
Ответить с цитатой  
  • Торрент
Автор: oartemka178 Хэш: ---
Добавлен: 2014-12-16 08:05 Приватный: Нет (DHT включён)
Статус:
---
Размер: 1.46 ГБ (1 566 107 648 байт)
Изменил:
---
Скачали: 0 (Раздающих: 0%)
Причина:
---
Здоровье: 0%
Сидеров: 0 Личеров: 0
Скорость раздачи: 0 байт/сек Скорость скачивания: 0 байт/сек
Последний сидер: Нет Последний личер: Нет
Для скачивания торрента необходимо зарегистрироваться или войти на трекер.
Показать сообщения за:  Поле сортировки  
Начать новую тему Ответить на тему  [ 1 сообщение ] 

Часовой пояс: UTC + 3 часа


Кто сейчас на конференции

Сейчас этот форум просматривают: нет зарегистрированных пользователей и гости: 1


Вы не можете начинать темы
Вы не можете отвечать на сообщения
Вы не можете редактировать свои сообщения
Вы не можете удалять свои сообщения
Вы не можете добавлять вложения

Найти:
Перейти:  
Переместиться наверх