Часовой пояс: UTC + 3 часа




Начать новую тему Ответить на тему  [ 1 сообщение ] 
Автор Сообщение
СообщениеДобавлено: 2014-12-16 08:10 
Не в сети
Администратор
Администратор
Аватара пользователя
Раздал: 51.58 ТБ
Скачал: 620.08 ГБ
Ратио: 85.182


Зарегистрирован: 2010-11-09 02:24
Сообщения: 44604
Откуда: Земля Санникова
Человек и его мечта / Такер: Человек и его мечта / Tucker: The Man and His Dream

#777
Страна: США
Жанр: Драма, биография
Год выпуска: 1988
Продолжительность: 01:50:33

Перевод: Авторский (одноголосый закадровый) ВАРТАН ДОХАЛОВ
Cубтитры: нет
Режиссер: Френсис Форд Коппола / Francis Ford Coppola

В ролях: Джефф Бриджес /Jeff Bridges/, Мартин Ландау /Martin Landau/, Джоан Аллен /Joan Allen/, Фредерик Форрест /Frederic Forrest/, Кристиан Слейтер /Christian Slater/, Ллойд Бриджес /Lloyd Bridges/, Дин Стокуэлл /Dean Stockwell/, Мако /Mako/, Элиас Котеас /Elias Koteas/, Андерс Джонсон /Anders Johnson/, Корин Немек /Corin Nemec (в титрах: Corky Nemec)/, Маршалл Белл /Marshall Bell/, Джей О. Сэндерс /Jay O. Sanders/, Питер Донат /Peter Donat/, Дин Гудман /Dean Goodman/, Джон И. Харт /John X. Heart/, Дон Новелло /Don Novello/, Патти Остин /Patti Austin/, Сэнди Булл /Sandy Bull/, Джо Миксак /Joe Miksak (в титрах: Joseph Miksak)/, Скотт Бич /Scott Beach/, Роланд Скривнер /Roland Scrivner/, Дин Стокуэлл /Dean Stockwell/"

Описание: Престон Такер (Бриджес) был мечтателем и бунтовщиком, чей гений и передовой дизайн в производстве автомобилей угрожал благополучию могущественных индустриальных гигантов США и политиков, которые их защищали. Его нововведения 40-х годов, такие, как пристежные ремни, системав вспрыска топлива и дисковые тормоза, используются и по сей день. Но основная мысль картины в том, что хорошие ребята редко выигрывают в реальной жизни. Бриджис достигает вершин мастерства в финальных сценах судебного процесса. (Иванов М.)

Доп. информация: За исходник спасибо PUNCHLINE79797

Релиз

Качество видео: WEB-DLRip
Формат видео: AVI

Видео: 720x352 (2.05:1), 23.976 fps, XviD build 50 ~1398 kbps avg, 0.23 bit/pixel
Аудио: 48 kHz, AC3 Dolby Digital, 3/2 (L,C,R,l,r) + LFE ch, ~448 kbps

MediaInfo
Такер - Человек и его мечта - Tucker.The.Man.and.His.Dream [Rip by Edich2].avi
Format : AVI
Format/Info : Audio Video Interleave
File size : 1.43 GiB
Duration : 1h 50mn
Overall bit rate : 1 856 Kbps
Movie name : Такер - Человек и его мечта - Tucker.The.Man.and.His.Dream [Rip by Edich2]
Director : Rip by Edich2
Writing application : VirtualDubMod 1.5.10.3 | http://www.virtualdub-fr.org || (build 2550/release)
Comment : RuTracker.org

Video
ID : 0
Format : MPEG-4 Visual
Format profile : Advanced Simple@L5
Format settings, BVOP : 2
Format settings, QPel : No
Format settings, GMC : No warppoints
Format settings, Matrix : Custom
Codec ID : XVID
Codec ID/Hint : XviD
Duration : 1h 50mn
Bit rate : 1 399 Kbps
Width : 720 pixels
Height : 352 pixels
Display aspect ratio : 2.045
Frame rate : 23.976 fps
Color space : YUV
Chroma subsampling : 4:2:0
Bit depth : 8 bits
Scan type : Progressive
Compression mode : Lossy
Bits/(Pixel*Frame) : 0.230
Stream size : 1.08 GiB (75%)
Writing library : XviD 1.2.1 (UTC 2008-12-04)

Audio
ID : 1
Format : AC-3
Format/Info : Audio Coding 3
Mode extension : CM (complete main)
Format settings, Endianness : Big
Codec ID : 2000
Duration : 1h 50mn
Bit rate mode : Constant
Bit rate : 448 Kbps
Channel count : 6 channels
Channel positions : Front: L C R, Side: L R, LFE
Sampling rate : 48.0 KHz
Bit depth : 16 bits
Compression mode : Lossy
Stream size : 354 MiB (24%)
Alignment : Split accross interleaves
Interleave, duration : 42 ms (1.00 video frame)
Interleave, preload duration : 500 ms


Скриншоты





У вас нет необходимых прав для просмотра вложений в этом сообщении.

_________________


Вернуться к началу
 Профиль  
Ответить с цитатой  
  • Торрент
Автор: oartemka178 Хэш: ---
Добавлен: 2014-12-16 08:05 Приватный: Нет (DHT включён)
Статус:
---
Размер: 1.43 ГБ (1 539 110 912 байт)
Изменил:
---
Скачали: 0 (Раздающих: 0%)
Причина:
---
Здоровье: 0%
Сидеров: 0 Личеров: 0
Скорость раздачи: 0 байт/сек Скорость скачивания: 0 байт/сек
Последний сидер: Нет Последний личер: Нет
Для скачивания торрента необходимо зарегистрироваться или войти на трекер.
Показать сообщения за:  Поле сортировки  
Начать новую тему Ответить на тему  [ 1 сообщение ] 

Часовой пояс: UTC + 3 часа


Кто сейчас на конференции

Сейчас этот форум просматривают: нет зарегистрированных пользователей и гости: 1


Вы не можете начинать темы
Вы не можете отвечать на сообщения
Вы не можете редактировать свои сообщения
Вы не можете удалять свои сообщения
Вы не можете добавлять вложения

Найти:
Перейти:  
Переместиться наверх