Часовой пояс: UTC + 3 часа




Начать новую тему Ответить на тему  [ 1 сообщение ] 
Автор Сообщение
СообщениеДобавлено: 2014-12-16 08:11 
Не в сети
Администратор
Администратор
Аватара пользователя
Раздал: 51.58 ТБ
Скачал: 620.08 ГБ
Ратио: 85.182


Зарегистрирован: 2010-11-09 02:24
Сообщения: 44604
Откуда: Земля Санникова
Прилив / Высокий прилив / High Tide

#777
Страна: Австралия
Жанр: мелодрама
Год выпуска: 1987
Продолжительность: 01:36:35

Перевод: Одноголосый закадровый Виталий Гирон aka kinoman88
Cубтитры: нет
Режиссер: Джиллиан Армстронг / Gillian Armstrong

В ролях: Лилли – Джуди Дэвис (Judi Davis)
Бет – Джан Адель (Jan Adele)
Элли – Клаудия Карван (Claudia Karvan)
Мик – Колин Фрилс (Colin Friels)

Описание: В один из австралийских курортных городков приезжает с концертами рок-группа, в которой на подпевках выступает главная героиня фильма Лилли (Дж. Дэвис). Её независимый характер и раскованная манера поведения являются причиной частых конфликтов в коллективе, что, в конце концов, приводит к увольнению. Отсутствие работы, безденежье и поломавшаяся машина заставляют Лилли какое-то время пожить в городке. Там она заводит дружбу с Элли (К. Карван), 14-летней девочкой, увлекающейся серфингом и по необъяснимым причинам кого-то ей напоминающую. Только после внезапной встречи со свекровью (Дж. Адель) она понимает, что Элли – её родная дочь, которую она когда-то бросила, не вынеся гибели мужа…

Доп. информация: За предоставленный рип благодарим Ledy_X
"Спасибы" просьба ПИСАТЬ в теме, тем самым вы продлеваете жизнь раздаче.

Релиз

Качество видео: HDTVRip [Исходник 1080i]
Формат видео: AVI

Видео: 720x400 (1.80:1), 25 fps, XviD build 50 ~1926 kbps avg, 0.27 bit/pixel
Аудио: 44.100 kHz, AC3 Dolby Digital, 2 ch, ~192.00 kbps avg

MediaInfo
Прилив [Высокий прилив] - High Tide [Rip by Ledy_X].avi
Format : AVI
Format/Info : Audio Video Interleave
File size : 1.44 GiB
Duration : 1h 36mn
Overall bit rate : 2 128 Kbps
Movie name : Прилив [Высокий прилив] - High Tide [Rip by Ledy_X]
Director : Rip by Ledy_X
Writing application : Nandub v1.0rc2
Copyright : Edich2
Comment : RuTracker.org

Video
ID : 0
Format : MPEG-4 Visual
Format profile : Advanced Simple@L5
Format settings, BVOP : 2
Format settings, QPel : No
Format settings, GMC : No warppoints
Format settings, Matrix : Custom
Codec ID : XVID
Codec ID/Hint : XviD
Duration : 1h 36mn
Bit rate : 1 926 Kbps
Width : 720 pixels
Height : 400 pixels
Display aspect ratio : 16:9
Frame rate : 25.000 fps
Color space : YUV
Chroma subsampling : 4:2:0
Bit depth : 8 bits
Scan type : Progressive
Compression mode : Lossy
Bits/(Pixel*Frame) : 0.268
Stream size : 1.30 GiB (91%)
Writing library : XviD 1.2.1 (UTC 2008-12-04)

Audio
ID : 1
Format : AC-3
Format/Info : Audio Coding 3
Mode extension : CM (complete main)
Format settings, Endianness : Big
Codec ID : 2000
Duration : 1h 36mn
Bit rate mode : Constant
Bit rate : 192 Kbps
Channel count : 2 channels
Channel positions : Front: L R
Sampling rate : 44.1 KHz
Bit depth : 16 bits
Compression mode : Lossy
Delay relative to video : 9s 0ms
Stream size : 132 MiB (9%)
Alignment : Split accross interleaves
Interleave, duration : 40 ms (1.00 video frame)
Interleave, preload duration : 500 ms


Скриншоты





У вас нет необходимых прав для просмотра вложений в этом сообщении.

_________________


Вернуться к началу
 Профиль  
Ответить с цитатой  
  • Торрент
Автор: oartemka178 Хэш: ---
Добавлен: 2014-12-16 08:05 Приватный: Нет (DHT включён)
Статус:
---
Размер: 1.44 ГБ (1 541 484 544 байт)
Изменил:
---
Скачали: 0 (Раздающих: 0%)
Причина:
---
Здоровье: 0%
Сидеров: 0 Личеров: 0
Скорость раздачи: 0 байт/сек Скорость скачивания: 0 байт/сек
Последний сидер: Нет Последний личер: Нет
Для скачивания торрента необходимо зарегистрироваться или войти на трекер.
Показать сообщения за:  Поле сортировки  
Начать новую тему Ответить на тему  [ 1 сообщение ] 

Часовой пояс: UTC + 3 часа


Кто сейчас на конференции

Сейчас этот форум просматривают: нет зарегистрированных пользователей и гости: 1


Вы не можете начинать темы
Вы не можете отвечать на сообщения
Вы не можете редактировать свои сообщения
Вы не можете удалять свои сообщения
Вы не можете добавлять вложения

Найти:
Перейти:  
Переместиться наверх