Часовой пояс: UTC + 3 часа




Начать новую тему Ответить на тему  [ 1 сообщение ] 
Автор Сообщение
СообщениеДобавлено: 2014-12-16 08:12 
Не в сети
Администратор
Администратор
Аватара пользователя
Раздал: 51.58 ТБ
Скачал: 620.08 ГБ
Ратио: 85.182


Зарегистрирован: 2010-11-09 02:24
Сообщения: 44652
Откуда: Земля Санникова
Боевик Джексон / Джексон по кличке "Мотор" / Action Jackson



#777
Год выпуска: 1988
Выпущено: США
Жанр: боевик, триллер, комедия, криминал
Продолжительность: 01:35:58
Перевод: Профессиональный (полное дублирование)
Субтитры: нет


Режиссер: Крэйг Р. Бэксли / Craig R. Baxley
В ролях: Карл Уэзерс, Крэйг Т. Нельсон, Вэнити, Шэрон Стоун, Томас Ф. Уилсон, Билл Дьюк, Роберт Дави, Джек Тибо, Роджер Аарон Браун, Стэн Фостер
О фильме: Сержант полиции Джексон, по прозвищу «Боевик», бросает вызов жестоким убийцам, состоящим на службе у безжалостного автомагната, который рассчитывает путем убийств расчистить себе дорогу к политической власти.
Преследуемый своими же коллегами-полицейскими по сфабрикованному обвинению, Джексон предпринимает отчаянную попытку разоблачения…

Релиз:
Автор: yaroslaigor
Качество: BDRip (источник: / BD-Remux / 1080p)
Формат: AVI
Видео: 704x400 (1.76:1), 23.976 fps, XviD build 65 ~1964 kbps avg, 0.29 bit/pixel
Аудио: 48 kHz, AC3 Dolby Digital, 2/0 (L,R), ~192.00 kbps avg
Размер: 1487.01 Mb (1/3 DVD-R)



Кадры из фильма







Mi
Формат : AVI
Формат/Информация : Audio Video Interleave
Размер файла : 1,45 Гбайт
Продолжительность : 1 ч. 35 м.
Общий поток : 2166 Кбит/сек
Название фильма : Боевик Джексон / Джексон по кличке "Мотор" / Action Jackson (1988) BDRip
Режиссёр : yaroslaigor
Жанр : боевик, триллер, комедия
Программа кодирования : VirtualDubMod 1.5.10.2 (build 2542/release)
Примечание : 18.12.2013

Видео
Идентификатор : 0
Формат : MPEG-4 Visual
Профиль формата : Advanced Simple@L5
Параметр BVOP формата : 1
Параметр QPel формата : Нет
Параметр GMC формата : Без точки перехода
Параметр матрицы формата : Выборочная
Идентификатор кодека : XVID
Идентификатор кодека/Подсказка : XviD
Продолжительность : 1 ч. 35 м.
Битрейт : 1965 Кбит/сек
Ширина : 704 пикселя
Высота : 400 пикселей
Соотношение сторон : 16:9
Частота кадров : 23,976 кадра/сек
Цветовое пространство : YUV
Субдискретизация насыщенности : 4:2:0
Битовая глубина : 8 бит
Тип развёртки : Прогрессивная
Метод сжатия : С потерями
Бит/(Пиксели*Кадры) : 0.291
Размер потока : 1,32 Гбайт (91%)
Библиотека кодирования : XviD 65

Аудио
Идентификатор : 1
Формат : AC-3
Формат/Информация : Audio Coding 3
Расширение режима : CM (complete main)
Параметр Endianness формата : Big
Идентификатор кодека : 2000
Продолжительность : 1 ч. 35 м.
Вид битрейта : Постоянный
Битрейт : 192 Кбит/сек
Каналы : 2 канала
Расположение каналов : Front: L R
Частота : 48,0 КГц
Битовая глубина : 16 бит
Метод сжатия : С потерями
Размер потока : 132 Мбайт (9%)
Выравнивание : Разделение по промежуткам
Продолжительность промежутка : 42 мс. (1,00 видеокадр)
Время предзагрузки промежутка : 500 мс.






У вас нет необходимых прав для просмотра вложений в этом сообщении.

_________________


Вернуться к началу
 Профиль  
Ответить с цитатой  
  • Торрент
Автор: oartemka178 Хэш: ---
Добавлен: 2014-12-16 08:05 Приватный: Нет (DHT включён)
Статус:
---
Размер: 1.45 ГБ (1 559 238 656 байт)
Изменил:
---
Скачали: 1 (Раздающих: 0%)
Причина:
---
Здоровье: 0%
Сидеров: 0 Личеров: 0
Скорость раздачи: 0 байт/сек Скорость скачивания: 0 байт/сек
Последний сидер: Нет Последний личер: Нет
Для скачивания торрента необходимо зарегистрироваться или войти на трекер.
Показать сообщения за:  Поле сортировки  
Начать новую тему Ответить на тему  [ 1 сообщение ] 

Часовой пояс: UTC + 3 часа


Кто сейчас на конференции

Сейчас этот форум просматривают: нет зарегистрированных пользователей и гости: 1


Вы не можете начинать темы
Вы не можете отвечать на сообщения
Вы не можете редактировать свои сообщения
Вы не можете удалять свои сообщения
Вы не можете добавлять вложения

Найти:
Перейти:  
Переместиться наверх