Часовой пояс: UTC + 3 часа




Начать новую тему Ответить на тему  [ 1 сообщение ] 
Автор Сообщение
СообщениеДобавлено: 2014-12-16 08:12 
Не в сети
Администратор
Администратор
Аватара пользователя
Раздал: 51.58 ТБ
Скачал: 620.08 ГБ
Ратио: 85.182


Зарегистрирован: 2010-11-09 02:24
Сообщения: 44652
Откуда: Земля Санникова
Страсти по Беатрис / La Passion Beatrice

#777
Страна: Франция, Италия
Жанр: историческая драма
Год выпуска: 1987
Продолжительность: 02:06:45

Перевод: Профессиональный (многоголосый закадровый) ОРТ
Перевод 2: Авторский (одноголосый закадровый) А.Гаврилов
Cубтитры: нет
Режиссер: Бертран Тавернье / Bertrand Tavernier

В ролях: Жюли Дельпи /Julie Delpy/, Бернар-Пьер Донадье /Bernard Pierre Donnadieu/, Нильс Тавернье /Nils Tavernier/, Моник Шометт /Monique Chaumette/, Мишель Глейзер /Michele Gleizer/, Максим Леру /Maxime Leroux/, Жан-Клод Аделин /Jean Claude Adelin/, Жан-Луи Гринфелд /Jean Louis Grinfeld/, Клод Дюнетон /Claude Duneton/, Изабель Нанти /Isabelle Nanty/, Жан-Люк Ривалс /Jean Luc Rivals/

Описание: Смутные годы средневековья. Франсуа де Кортемар возвращается на свои земли после четырех лет войны и плена, окончательно потеряв веру в бога и людей.
Его дочь Беатрис, нежное и утонченное создание, с нетерпением ждет отца, однако встречается с чудовищем, привыкшим к грабежу и убийству. Он не останавливается даже перед насилием над собственной дочерью. Не выдержав, Беатрис ..... бла-бла-бла..

Доп. информация: Гаврилов позаимствовоан у DeASS
За дорогу Гаврилова спасибо edsz.

цитата:
За перевод Гаврилова, спасибо:
конец_фильма, Goldtwait, Джосс, dunhill200, lexal2002, Chistobaev, therox, Pain_70, edsz, jorn.vv, эвоки

Качество видео: DVDRip
Формат видео: AVI

Видео: 704x384 (1.83:1), 25 fps, XviD build 50 ~2011 kbps avg, 0.30 bit/pixel
Аудио: 48 kHz, AC3 Dolby Digital, 1/0 (C) ch, ~192 kbps MVO
Аудио 2: 48 kHz, AC3 Dolby Digital, 2/0 (L,R) ch, ~224 kbps AVO

MediaInfo
Страсти по Беатрис - La Passion Beatrice [Rip by Edich2].avi
Format : AVI
Format/Info : Audio Video Interleave
Format profile : OpenDML
File size : 2.16 GiB
Duration : 2h 6mn
Overall bit rate : 2 434 Kbps
Movie name : Страсти по Беатрис - La Passion Beatrice [Rip by Edich2]
Director : Rip by Edich2
Writing application : VirtualDubMod 1.5.10.2 (build 2540/release)
Comment : RuTracker.org

Video
ID : 0
Format : MPEG-4 Visual
Format profile : Advanced Simple@L5
Format settings, BVOP : 2
Format settings, QPel : No
Format settings, GMC : No warppoints
Format settings, Matrix : Custom
Codec ID : XVID
Codec ID/Hint : XviD
Duration : 2h 6mn
Bit rate : 2 000 Kbps
Width : 704 pixels
Height : 384 pixels
Display aspect ratio : 1.85:1
Frame rate : 25.000 fps
Color space : YUV
Chroma subsampling : 4:2:0
Bit depth : 8 bits
Scan type : Progressive
Compression mode : Lossy
Bits/(Pixel*Frame) : 0.296
Stream size : 1.77 GiB (82%)
Writing library : XviD 1.2.1 (UTC 2008-12-04)

Audio #1
ID : 1
Format : AC-3
Format/Info : Audio Coding 3
Mode extension : CM (complete main)
Format settings, Endianness : Big
Codec ID : 2000
Duration : 2h 6mn
Bit rate mode : Constant
Bit rate : 192 Kbps
Channel count : 1 channel
Channel positions : Front: C
Sampling rate : 48.0 KHz
Bit depth : 16 bits
Compression mode : Lossy
Stream size : 174 MiB (8%)
Alignment : Split accross interleaves
Interleave, duration : 40 ms (1.00 video frame)
Interleave, preload duration : 500 ms

Audio #2
ID : 2
Format : AC-3
Format/Info : Audio Coding 3
Mode extension : CM (complete main)
Format settings, Endianness : Big
Codec ID : 2000
Duration : 2h 6mn
Bit rate mode : Constant
Bit rate : 224 Kbps
Channel count : 2 channels
Channel positions : Front: L R
Sampling rate : 48.0 KHz
Bit depth : 16 bits
Compression mode : Lossy
Stream size : 203 MiB (9%)
Alignment : Split accross interleaves
Interleave, duration : 40 ms (1.00 video frame)
Interleave, preload duration : 500 ms


Скриншоты





У вас нет необходимых прав для просмотра вложений в этом сообщении.

_________________


Вернуться к началу
 Профиль  
Ответить с цитатой  
  • Торрент
Автор: oartemka178 Хэш: ---
Добавлен: 2014-12-16 08:05 Приватный: Нет (DHT включён)
Статус:
---
Размер: 2.16 ГБ (2 314 418 176 байт)
Изменил:
---
Скачали: 0 (Раздающих: 0%)
Причина:
---
Здоровье: 0%
Сидеров: 0 Личеров: 0
Скорость раздачи: 0 байт/сек Скорость скачивания: 0 байт/сек
Последний сидер: Нет Последний личер: Нет
Для скачивания торрента необходимо зарегистрироваться или войти на трекер.
Показать сообщения за:  Поле сортировки  
Начать новую тему Ответить на тему  [ 1 сообщение ] 

Часовой пояс: UTC + 3 часа


Кто сейчас на конференции

Сейчас этот форум просматривают: нет зарегистрированных пользователей и гости: 1


Вы не можете начинать темы
Вы не можете отвечать на сообщения
Вы не можете редактировать свои сообщения
Вы не можете удалять свои сообщения
Вы не можете добавлять вложения

Найти:
Перейти:  
Переместиться наверх