Часовой пояс: UTC + 3 часа




Начать новую тему Ответить на тему  [ 1 сообщение ] 
Автор Сообщение
СообщениеДобавлено: 2014-12-16 08:12 
Не в сети
Администратор
Администратор
Аватара пользователя
Раздал: 51.58 ТБ
Скачал: 620.08 ГБ
Ратио: 85.182


Зарегистрирован: 2010-11-09 02:24
Сообщения: 44604
Откуда: Земля Санникова
Побег из Лос-Анджелеса / 2.18 GB


Побег из Нью-Йорка / Escape from New York



«1997. New York city is now a maximum security prison. Breaking out is impossible. Breaking in is insane»

#777



Страна: США, Великобритания
Жанр: Фантастика, Боевик, Триллер, Криминал, Приключения
Год выпуска: 1981
Продолжительность: 01:39:11


Перевод: Авторский (одноголосый закадровый) Ю.Сербин

Перевод 2: Авторский (одноголосый закадровый) А.Михалёв (Отдельно)
Перевод 3: Авторский (одноголосый закадровый) А.Гаврилов (Отдельно)
Перевод 4: Авторский (одноголосый закадровый) Л.Володарский (Отдельно)
Cубтитры: русские (Отдельно)
Оригинальная аудиодорожка: нет


Режиссер: Джон Карпентер / John Carpenter


В ролях: Курт Рассел /Kurt Russell/, Ли Ван Клиф /Lee Van Cleef/, Эрнест Боргнайн /Ernest Borgnine/, Дональд Плезенс /Donald Pleasence/, Айзек Хейз /Isaac Hayes/, Сизон Хабли /Season Hubley/, Гарри Дин Стэнтон /Harry Dean Stanton/, Эдриенн Барбо /Adrienne Barbeau/, Том Аткинс /Tom Atkins/, Чарльз Сайферс /Charles Cyphers/, Джо Ангер /Joe Unger/, Джон Дил /John Diehl/, Кармен Филпи /Carmen Filpi/, Окс Бэйкер /Ox Baker


Описание: Некогда великий город Нью-Йорк превращен в тюрьму особо строгого режима для самых отъявленных преступников. Все подходы к острову Манхэттен заминированы, вдоль берега воздвигнута огромная стена, а тех, кто все же осмелится бежать, подстерегает целая армия полицейских, немедленно открывающих огонь на поражение.
Когда в Нью-Йорке терпит аварию самолет президента США, заключенные берут главу государства в заложники. Освободить его должен крутой парень — «Змей» Плисскен, бывший герой войны, ставший преступником.
Если через 24 часа «Змей» вернется с президентом, он получит свободу. Если же он не выполнит задание, сработает вживленная в его тело бомба с часовым механизмом…


Доп. информация:



Автор рипа: MECHANICAL ENGINEER

Побег из Нью-Йорка / R5 + В.Горчаков + ОРТ + Английский


Качество видео: BDRip (BD-Remux / Escape.from.New.York.(1981).Blu-ray.0dayTeam)
Формат видео: AVI

Видео: 720x304 (2.37:1), 23.976 fps, XviD build 50 ~1706 kbps avg, 0.33 bit/pixel
Аудио: 48 kHz, AC3 Dolby Digital, 3/2 (L,C,R,l,r) + LFE ch, ~384.00 kbps avg | Ю.Сербин

Размер файла: 1489.97 Mb (1/3 DVD5)

Аудио 2: 48 kHz, AC3, 5.1 ch, 384 kbps | А.Михалёв | отдельно
Аудио 3: 48 kHz, AC3, 2 ch, 192 kbps | А.Гаврилов | отдельно
Аудио 4: 48 kHz, AC3, 2 ch, 192 kbps | Л.Володарский | отдельно

Формат субтитров: softsub (SRT) : Русские, Английские SDH. | отдельно

MediaInfo


Код:
Format                           : AVI
Format/Info                      : Audio Video Interleave
File size                        : 1.46 GiB
Duration                         : 1h 39mn
Overall bit rate                 : 2 100 Kbps
Movie name                       : Escape from New York (1981)
Director                         : MECHANICAL ENGINEER (BD-Remux)
Writing application              : VirtualDubMod 1.5.10.3 | www.virtualdub-fr.org || (build 2550/release)
Writing library                  : VirtualDubMod build 2550/release
Copyright                        : HQ-ViDEO
Comment                          : 16.03.2011

Video
ID                               : 0
Format                           : MPEG-4 Visual
Format profile                   : Advanced Simple@L5
Format settings, BVOP            : Yes
Format settings, QPel            : No
Format settings, GMC             : No warppoints
Format settings, Matrix          : Custom
Codec ID                         : XVID
Codec ID/Hint                    : XviD
Duration                         : 1h 39mn
Bit rate                         : 1 707 Kbps
Width                            : 720 pixels
Height                           : 304 pixels
Display aspect ratio             : 2.35:1
Frame rate                       : 23.976 fps
Color space                      : YUV
Chroma subsampling               : 4:2:0
Bit depth                        : 8 bits
Scan type                        : Progressive
Bits/(Pixel*Frame)               : 0.325
Stream size                      : 1.18 GiB (81%)
Writing library                  : XviD 1.2.1 (UTC 2008-12-04)

Audio
ID                               : 1
Format                           : AC-3
Format/Info                      : Audio Coding 3
Mode extension                   : CM (complete main)
Codec ID                         : 2000
Duration                         : 1h 39mn
Bit rate mode                    : Constant
Bit rate                         : 384 Kbps
Channel(s)                       : 6 channels
Channel positions                : Front: L C R, Side: L R, LFE
Sampling rate                    : 48.0 KHz
Bit depth                        : 16 bits
Stream size                      : 272 MiB (18%)
Alignment                        : Split accross interleaves
Interleave, duration             : 42 ms (1.00 video frame)
Interleave, preload duration     : 500 ms




Скриншот название фильма



Скриншоты для оценки качества (превью - увеличение по клику):







Сравнения
Перевод: Ю.Сербин, А.Гаврилов, А.Михайлёв, Л.Володарский, Оригинальная аудиодорожка: английский (в эту раздачу не стал добавлять оригинальную дорожку, т.к. её хватает в других раздачах)
http://rustrek.ru/viewtopic.php?t=4068560
http://screenshotcomparison.com/comparison/51842
http://screenshotcomparison.com/comparison/51841
http://screenshotcomparison.com/comparison/51843 подряд идущие кадры


http://rustrek.ru/viewtopic.php?t=2632244 Перевод: А.Михайлёв
http://screenshotcomparison.com/comparison/51838

ПРИЯТНОГО ПРОСМОТРА!


У вас нет необходимых прав для просмотра вложений в этом сообщении.

_________________


Вернуться к началу
 Профиль  
Ответить с цитатой  
  • Торрент
Автор: oartemka178 Хэш: ---
Добавлен: 2014-12-16 08:05 Приватный: Нет (DHT включён)
Статус:
---
Размер: 1.99 ГБ (2 133 750 247 байт)
Изменил:
---
Скачали: 0 (Раздающих: 0%)
Причина:
---
Здоровье: 0%
Сидеров: 0 Личеров: 0
Скорость раздачи: 0 байт/сек Скорость скачивания: 0 байт/сек
Последний сидер: Нет Последний личер: Нет
Для скачивания торрента необходимо зарегистрироваться или войти на трекер.
Показать сообщения за:  Поле сортировки  
Начать новую тему Ответить на тему  [ 1 сообщение ] 

Часовой пояс: UTC + 3 часа


Кто сейчас на конференции

Сейчас этот форум просматривают: нет зарегистрированных пользователей и гости: 1


Вы не можете начинать темы
Вы не можете отвечать на сообщения
Вы не можете редактировать свои сообщения
Вы не можете удалять свои сообщения
Вы не можете добавлять вложения

Найти:
Перейти:  
Переместиться наверх