Часовой пояс: UTC + 3 часа




Начать новую тему Ответить на тему  [ 1 сообщение ] 
Автор Сообщение
СообщениеДобавлено: 2014-12-16 08:13 
Не в сети
Администратор
Администратор
Аватара пользователя
Раздал: 51.58 ТБ
Скачал: 620.08 ГБ
Ратио: 85.182


Зарегистрирован: 2010-11-09 02:24
Сообщения: 44604
Откуда: Земля Санникова
Я обвиняю / Суд - это я / Я, суд присяжных
I, the Jury



#777



Страна: США
Жанр: триллер, драма, криминал, детектив
Год выпуска: 1981
Продолжительность: 01:51:05


Перевод: Авторский (одноголосый закадровый) А. Михалев
Cубтитры: немецкие
Режиссер: Ричард Т. Хеффрон / Richard T. Heffron


В ролях: Арманд Ассанте, Барбара Каррера, Лаурен Лэндон, Алан Кинг, Джеффри Льюис, Пол Сорвино, Джадсон Ирни Скотт, Бэрри Снайдер, Джулия Барр, Джессика Джеймс


Описание: Начало 80-х. В одном из злачных нью-йоркских отелей выстрелом в живот убит однорукий следователь по имени Джек Уилльямс. Приехавший на место преступления частный детектив Майк Хаммер узнаёт в убитом своего друга (с которым вместе воевал во время вьетнамской кампании) и клянётся найти как убийцу армейского сослуживца, так и его заказчиков.
И Хаммер с безудержной яростью начинает частное расследование, которое его приводит в мир погонь, жестоких убийств на сексуальной почве, медицинского порнобизнеса и шпионо-политических интриг с участием ЦРУ.


Качество видео: WEB-DL
Формат видео: MKV


Видео: 640x480 (3.2), 23.976 fps, ~1 366 Kbps avg, 0.18 bit/pixel
Аудио № 1: 48 kHz, AC3 Dolby Digital, 2/0 (L,R), ~192.00 kbps avg (А. Михалев)
Аудио № 2: 48 kHz, AC3 Dolby Digital, 2/0 (L,R), ~192.00 kbps avg (Original)




Цитата:
Цитата:
Звуковая дорожка с переводом Алексея Михалева появилась благодаря budulai-8.






Сравнение с DVD который есть в сети


Скриншот с DVD



Скриншот с WEB-DL





MediaInfo
General
Unique ID : 200585084486075379913120394779617892780 (0x96E7483524F0A42090607188357399AC)
Complete name : D:\Temp\I, the Jury.mkv
Format : Matroska
Format version : Version 4 / Version 2
File size : 1.38 GiB
Duration : 1h 51mn
Overall bit rate : 1 785 Kbps
Encoded date : UTC 2013-11-29 08:23:04
Writing application : mkvmerge v6.5.0 ('Isn't she lovely') built on Oct 20 2013 12:50:05
Writing library : libebml v1.3.0 + libmatroska v1.4.1

Video
ID : 1
Format : AVC
Format/Info : Advanced Video Codec
Format profile : Baseline@L3.0
Format settings, CABAC : No
Format settings, ReFrames : 1 frame
Codec ID : V_MPEG4/ISO/AVC
Duration : 1h 51mn
Bit rate : 1 366 Kbps
Width : 640 pixels
Height : 480 pixels
Display aspect ratio : 3:2
Frame rate mode : Constant
Frame rate : 23.976 fps
Color space : YUV
Chroma subsampling : 4:2:0
Bit depth : 8 bits
Scan type : Progressive
Bits/(Pixel*Frame) : 0.185
Stream size : 1.06 GiB (76%)
Language : English
Default : Yes
Forced : No
Color primaries : BT.601 NTSC
Transfer characteristics : BT.709
Matrix coefficients : BT.601

Audio #1
ID : 2
Format : AC-3
Format/Info : Audio Coding 3
Mode extension : CM (complete main)
Format settings, Endianness : Big
Codec ID : A_AC3
Duration : 1h 51mn
Bit rate mode : Constant
Bit rate : 192 Kbps
Channel count : 2 channels
Channel positions : Front: L R
Sampling rate : 48.0 KHz
Bit depth : 16 bits
Compression mode : Lossy
Stream size : 153 MiB (11%)
Title : Dolby Digital 2.0 @ 192
Language : Russian
Default : Yes
Forced : No

Audio #2
ID : 3
Format : AC-3
Format/Info : Audio Coding 3
Mode extension : CM (complete main)
Format settings, Endianness : Big
Codec ID : A_AC3
Duration : 1h 51mn
Bit rate mode : Constant
Bit rate : 192 Kbps
Channel count : 2 channels
Channel positions : Front: L R
Sampling rate : 48.0 KHz
Bit depth : 16 bits
Compression mode : Lossy
Stream size : 153 MiB (11%)
Title : Dolby Digital 2.0 @ 192
Language : English
Default : No
Forced : No


Скриншот c названием фильма



Скриншоты





ВНИМАНИЕ!!! ТОРРЕНТ ПЕРЕЗАЛИТ! 29.11.2013
Заменено видео на WEB-DL Просьба к скачавшим перекачать торрент!


У вас нет необходимых прав для просмотра вложений в этом сообщении.

_________________


Вернуться к началу
 Профиль  
Ответить с цитатой  
  • Торрент
Автор: oartemka178 Хэш: ---
Добавлен: 2014-12-16 08:05 Приватный: Нет (DHT включён)
Статус:
---
Размер: 1.38 ГБ (1 487 095 114 байт)
Изменил:
---
Скачали: 1 (Раздающих: 0%)
Причина:
---
Здоровье: 0%
Сидеров: 0 Личеров: 0
Скорость раздачи: 0 байт/сек Скорость скачивания: 0 байт/сек
Последний сидер: Нет Последний личер: Нет
Для скачивания торрента необходимо зарегистрироваться или войти на трекер.
Показать сообщения за:  Поле сортировки  
Начать новую тему Ответить на тему  [ 1 сообщение ] 

Часовой пояс: UTC + 3 часа


Кто сейчас на конференции

Сейчас этот форум просматривают: нет зарегистрированных пользователей и гости: 1


Вы не можете начинать темы
Вы не можете отвечать на сообщения
Вы не можете редактировать свои сообщения
Вы не можете удалять свои сообщения
Вы не можете добавлять вложения

Найти:
Перейти:  
Переместиться наверх