Часовой пояс: UTC + 3 часа




Начать новую тему Ответить на тему  [ 1 сообщение ] 
Автор Сообщение
СообщениеДобавлено: 2014-12-16 08:13 
Не в сети
Администратор
Администратор
Аватара пользователя
Раздал: 51.58 ТБ
Скачал: 620.08 ГБ
Ратио: 85.182


Зарегистрирован: 2010-11-09 02:24
Сообщения: 44652
Откуда: Земля Санникова
[size=28][font=serif]Высота Гамбургер / Hamburger Hill
#777


Страна: США
Жанр: боевик, драма, военный
Год выпуска: 1987
Продолжительность: 01:49:47

Перевод#1: Профессиональный (двухголосый закадровый) | Elrom
Перевод#2: Авторский (одноголосый закадровый), Ю. Живов
Cубтитры: русские, английские
Оригинальная аудиодорожка: английский

Режиссер: Джон Ирвин

В ролях: Энтони Баррил, Майкл Ботмэн, Дон Чидл, Майкл Долан, Дон Джеймс, Дилан МакДермотт, Майкл Никлз, Гарри О’Рейли, Дэниэл О’Ши, Тим Куилл, Томми Свердлоу, Кортни Б. Вэнс, Стивен Уэбер, Теган Уэст, Кью Чинх, Даг Гудман

Описание: Вьетнам, май 1969 года. Десять дней измотанные войной солдаты отряда «Браво» 101-й дивизии штурмуют высоту 937, прозванную "Гамбургером". Этот ничем не примечательный холм перемалывает людей как мясорубка, и каждая его пядь буквально пропитана кровью. Потери составляют 70%, но молодым американцам приходится вновь и вновь подниматься в атаку. Война сама по себе ад, но высота "Гамбургер" намного хуже ада…



Исходник: BDRemux, спасибо Дьяволу
Качество видео: BDRip-AVC | sample
Контейнер: MKV
Видео кодек: x264
Видео: AVC 1008x568 (16:9), 23.976 fps, ~4335 Kbps, 0.31 bit/pixel
Аудио #1: Russian AC3 2ch 48kHz 192Kbps | DVO Elrom
Аудио #2: Russian AC3 6ch 48kHz 384Kbps | AVO Живов
Аудио #3: English AC3 6ch 48kHz 448Kbps | Original
Формат субтитров: softsub (SRT)[/font][/size]

MediaInfo | x264


x264
--[NoImage] avs [info]: 1008x568p 1:1 @ 24000/1001 fps (cfr)
--[NoImage] x264 [info]: using SAR=1/1
--[NoImage] x264 [info]: using cpu capabilities: MMX2 SSE2Fast FastShuffle SSEMisalign LZCNT
--[NoImage] x264 [info]: profile High, level 4.1
--[NoImage]
--[NoImage] x264 [info]: frame I:1025 Avg QP:20.61 size: 82055 PSNR Mean Y:43.51 U:52.30 V:52.64 Avg:44.97 Global:44.07
--[NoImage] x264 [info]: frame P:30205 Avg QP:22.09 size: 41636 PSNR Mean Y:41.96 U:50.97 V:51.46 Avg:43.39 Global:42.07
--[NoImage] x264 [info]: frame B:126705 Avg QP:24.36 size: 17583 PSNR Mean Y:40.06 U:50.55 V:51.08 Avg:41.61 Global:40.82
--[NoImage] x264 [info]: consecutive B-frames: 1.2% 1.0% 3.2% 16.5% 18.5% 41.4% 8.9% 3.3% 2.9% 1.7% 0.7% 0.4% 0.2%
--[NoImage] x264 [info]: mb I I16..4: 3.7% 86.1% 10.2%
--[NoImage] x264 [info]: mb P I16..4: 0.5% 16.7% 1.2% P16..4: 32.9% 27.3% 15.9% 0.0% 0.0% skip: 5.5%
--[NoImage] x264 [info]: mb B I16..4: 0.0% 1.8% 0.2% B16..8: 42.4% 15.1% 5.9% direct:10.0% skip:24.7% L0:41.3% L1:43.3% BI:15.4%
--[NoImage] x264 [info]: 8x8 transform intra:90.1% inter:60.4%
--[NoImage] x264 [info]: coded y,uvDC,uvAC intra: 96.2% 68.3% 16.7% inter: 45.6% 21.1% 0.2%
--[NoImage] x264 [info]: i16 v,h,dc,p: 68% 10% 7% 15%
--[NoImage] x264 [info]: i8 v,h,dc,ddl,ddr,vr,hd,vl,hu: 9% 6% 8% 11% 15% 13% 14% 11% 13%
--[NoImage] x264 [info]: i4 v,h,dc,ddl,ddr,vr,hd,vl,hu: 10% 5% 3% 10% 17% 15% 15% 12% 13%
--[NoImage] x264 [info]: i8c dc,h,v,p: 41% 28% 18% 13%
--[NoImage] x264 [info]: Weighted P-Frames: Y:10.7% UV:5.4%
--[NoImage] x264 [info]: ref P L0: 38.9% 13.9% 19.4% 7.0% 6.2% 4.0% 4.0% 2.2% 2.3% 1.9% 0.2% 0.0%
--[NoImage] x264 [info]: ref B L0: 73.1% 12.4% 5.4% 3.0% 2.1% 1.8% 1.4% 0.6% 0.3%
--[NoImage] x264 [info]: ref B L1: 93.1% 6.9%
--[NoImage] x264 [info]: SSIM Mean Y:0.9549014 (13.458db)
--[NoImage] x264 [info]: PSNR Mean Y:40.448 U:50.642 V:51.163 Avg:41.973 Global:41.044 kb/s:4335.14
--[NoImage] encoded 157935 frames, 3.70 fps, 4335.14 kb/s

General
Complete name : E:\...\Hamburger.Hill.1987.BDRip.x264.AC3.Rus.Eng-E76.mkv
Format : Matroska
Format version : Version 2
File size : 4.11 GiB
Duration : 1h 49mn
Overall bit rate : 5 361 Kbps
Movie name : Hamburger.Hill.1987.BDRip.x264.AC3.Rus.Eng-E76
Encoded date : UTC 2013-11-25 01:17:43
Writing application : mkvmerge v6.5.0 ('Isn't she lovely') built on Oct 20 2013 12:50:05
Writing library : libebml v1.3.0 + libmatroska v1.4.1

Video
ID : 1
Format : AVC
Format/Info : Advanced Video Codec
Format profile : High@L4.1
Format settings, CABAC : Yes
Format settings, ReFrames : 10 frames
Codec ID : V_MPEG4/ISO/AVC
Bit rate : 4 231 Kbps
Width : 1 008 pixels
Height : 568 pixels
Display aspect ratio : 16:9
Frame rate mode : Variable
Original frame rate : 23.976 fps
Color space : YUV
Chroma subsampling : 4:2:0
Bit depth : 8 bits
Scan type : Progressive
Title : Encode by Enclave76
Writing library : x264 core 114 r1913 5fd3dce
Encoding settings : cabac=1 / ref=10 / deblock=1:-3:-3 / analyse=0x3:0x113 / me=umh / subme=10 / psy=1 / psy_rd=1.20:0.00 / mixed_ref=1 / me_range=32 / chroma_me=1 / trellis=2 / 8x8dct=1 / cqm=0 / deadzone=21,11 / fast_pskip=1 / chroma_qp_offset=-3 / threads=6 / sliced_threads=0 / nr=0 / decimate=1 / interlaced=0 / constrained_intra=0 / bframes=12 / b_pyramid=2 / b_adapt=2 / b_bias=0 / direct=1 / weightb=1 / open_gop=0 / weightp=2 / keyint=250 / keyint_min=23 / scenecut=40 / intra_refresh=0 / rc_lookahead=50 / rc=crf / mbtree=0 / crf=19.5 / qcomp=0.65 / qpmin=0 / qpmax=69 / qpstep=4 / vbv_maxrate=50000 / vbv_bufsize=62500 / crf_max=0.0 / nal_hrd=none / ip_ratio=1.40 / pb_ratio=1.30 / aq=2:0.70 / zones=154860,157934,q=35
Language : English
Default : No
Forced : No

Audio #1
ID : 2
Format : AC-3
Format/Info : Audio Coding 3
Mode extension : CM (complete main)
Format settings, Endianness : Big
Codec ID : A_AC3
Duration : 1h 49mn
Bit rate mode : Constant
Bit rate : 192 Kbps
Channel(s) : 2 channels
Channel positions : Front: L R
Sampling rate : 48.0 KHz
Bit depth : 16 bits
Compression mode : Lossy
Stream size : 151 MiB (4%)
Title : DVO Elrom
Language : Russian
Default : Yes
Forced : No

Audio #2
ID : 3
Format : AC-3
Format/Info : Audio Coding 3
Mode extension : CM (complete main)
Format settings, Endianness : Big
Codec ID : A_AC3
Duration : 1h 49mn
Bit rate mode : Constant
Bit rate : 384 Kbps
Channel(s) : 6 channels
Channel positions : Front: L C R, Side: L R, LFE
Sampling rate : 48.0 KHz
Bit depth : 16 bits
Compression mode : Lossy
Stream size : 302 MiB (7%)
Title : AVO Zhivov
Language : Russian
Default : No
Forced : No

Audio #3
ID : 4
Format : AC-3
Format/Info : Audio Coding 3
Mode extension : CM (complete main)
Format settings, Endianness : Big
Codec ID : A_AC3
Duration : 1h 49mn
Bit rate mode : Constant
Bit rate : 448 Kbps
Channel(s) : 6 channels
Channel positions : Front: L C R, Side: L R, LFE
Sampling rate : 48.0 KHz
Bit depth : 16 bits
Compression mode : Lossy
Stream size : 352 MiB (8%)
Title : Original
Language : English
Default : No
Forced : No

Text #1
ID : 5
Format : UTF-8
Codec ID : S_TEXT/UTF8
Codec ID/Info : UTF-8 Plain Text
Language : Russian
Default : No
Forced : No

Text #2
ID : 6
Format : UTF-8
Codec ID : S_TEXT/UTF8
Codec ID/Info : UTF-8 Plain Text
Language : English
Default : No
Forced : No


Скриншоты



vs source



E76 vs hV



=> Новые релизы в AVC | | Заказ рипов в AVC


У вас нет необходимых прав для просмотра вложений в этом сообщении.

_________________


Вернуться к началу
 Профиль  
Ответить с цитатой  
  • Торрент
Автор: oartemka178 Хэш: ---
Добавлен: 2014-12-16 08:05 Приватный: Нет (DHT включён)
Статус:
---
Размер: 4.11 ГБ (4 414 519 469 байт)
Изменил:
---
Скачали: 0 (Раздающих: 0%)
Причина:
---
Здоровье: 0%
Сидеров: 0 Личеров: 0
Скорость раздачи: 0 байт/сек Скорость скачивания: 0 байт/сек
Последний сидер: Нет Последний личер: Нет
Для скачивания торрента необходимо зарегистрироваться или войти на трекер.
Показать сообщения за:  Поле сортировки  
Начать новую тему Ответить на тему  [ 1 сообщение ] 

Часовой пояс: UTC + 3 часа


Кто сейчас на конференции

Сейчас этот форум просматривают: нет зарегистрированных пользователей и гости: 2


Вы не можете начинать темы
Вы не можете отвечать на сообщения
Вы не можете редактировать свои сообщения
Вы не можете удалять свои сообщения
Вы не можете добавлять вложения

Найти:
Перейти:  
cron
Переместиться наверх