Часовой пояс: UTC + 3 часа




Начать новую тему Ответить на тему  [ 1 сообщение ] 
Автор Сообщение
СообщениеДобавлено: 2014-12-17 17:28 
Не в сети
Администратор
Администратор
Аватара пользователя
Раздал: 51.58 ТБ
Скачал: 620.08 ГБ
Ратио: 85.182


Зарегистрирован: 2010-11-09 02:24
Сообщения: 44652
Откуда: Земля Санникова
Пуля для незнакомца / Gli fumavano le Colt... lo chiamavano Camposanto

#777
Страна: Италия
Жанр: Вестерн
Год выпуска: 1971
Продолжительность: 01:29:57

Перевод: Одноголосый закадровый
Cубтитры: нет
Режиссер: Джулиано Карнимео / Giuliano Carnimeo

В ролях: Джанни Гарко, Вильям Бергер, Крис Читтел, Джон Фордайс, Уго Фангареджи, Раймондо Пенне, Франко Рессель, Альдо Барберито, Ивано Стацциоли, Нелло Паццафини, Джованни Ди Бенедетто, Уго Адинолфи, Жильдо Ди Марко, Билл Вэндерс

Описание: Два брата-ирландца, едут домой, к отцу, на Дикий Запад. По прибытии, они знакомятся с таинственной бандой в масках, которая держит в страхе округу и занимается грабежом и вымогательством местных фермеров. Братьям, в борьбе с бандитами поможет стрелок, которого все называют Могильщиком, ну а бандиты наймут его старого друга — Герцога.

Доп. информация: Исходник DVD-9 (СПАСИБО! keastwood)

Сэмпл: http://multi-up.com/959649

Качество видео: DVDRip
Формат видео: AVI

Видео: XviD build 50, 704x320 (2.20:1), 25 fps, 1969 kbps avg
Аудио: AC3 Dolby Digital, 48 kHz, 2/0 (L,R) ch, 192.00 kbps avg

MediaInfo
General
Complete name : D:\Pulya.dlya.neznakomca.1971.XviD.DVDRip-Dego.avi
Format : AVI
Format/Info : Audio Video Interleave
File size : 1.36 GiB
Duration : 1h 29mn
Overall bit rate : 2 171 Kbps
Writing application : VirtualDubMod 1.5.10.2 (build 2540/release)
Writing library : VirtualDubMod build 2540/release

Video
ID : 0
Format : MPEG-4 Visual
Format profile : AdvancedSimple@L5
Format settings, BVOP : Yes
Format settings, QPel : No
Format settings, GMC : No warppoints
Format settings, Matrix : Default (MPEG)
Codec ID : XVID
Codec ID/Hint : XviD
Duration : 1h 29mn
Bit rate : 1 969 Kbps
Width : 704 pixels
Height : 320 pixels
Display aspect ratio : 2.2
Frame rate : 25.000 fps
Resolution : 24 bits
Colorimetry : 4:2:0
Scan type : Progressive
Bits/(Pixel*Frame) : 0.350
Stream size : 1.24 GiB (91%)
Writing library : XviD 1.2.1 (UTC 2008-12-04)

Audio
ID : 1
Format : AC-3
Format/Info : Audio Coding 3
Codec ID : 2000
Duration : 1h 29mn
Bit rate mode : Constant
Bit rate : 192 Kbps
Channel(s) : 2 channels
Channel positions : L R
Sampling rate : 48.0 KHz
Stream size : 124 MiB (9%)
Alignment : Split accross interleaves
Interleave, duration : 40 ms (1.00 video frame)
Interleave, preload duration : 500 ms


Скриншоты



У вас нет необходимых прав для просмотра вложений в этом сообщении.

_________________


Вернуться к началу
 Профиль  
Ответить с цитатой  
  • Торрент
Автор: oartemka178 Хэш: ---
Добавлен: 2014-12-17 17:25 Приватный: Нет (DHT включён)
Статус:
---
Размер: 1.36 ГБ (1 464 707 072 байт)
Изменил:
---
Скачали: 0 (Раздающих: 0%)
Причина:
---
Здоровье: 0%
Сидеров: 0 Личеров: 0
Скорость раздачи: 0 байт/сек Скорость скачивания: 0 байт/сек
Последний сидер: Нет Последний личер: Нет
Для скачивания торрента необходимо зарегистрироваться или войти на трекер.
Показать сообщения за:  Поле сортировки  
Начать новую тему Ответить на тему  [ 1 сообщение ] 

Часовой пояс: UTC + 3 часа


Кто сейчас на конференции

Сейчас этот форум просматривают: нет зарегистрированных пользователей и гости: 1


Вы не можете начинать темы
Вы не можете отвечать на сообщения
Вы не можете редактировать свои сообщения
Вы не можете удалять свои сообщения
Вы не можете добавлять вложения

Найти:
Перейти:  
Переместиться наверх