Часовой пояс: UTC + 3 часа




Начать новую тему Ответить на тему  [ 1 сообщение ] 
Автор Сообщение
СообщениеДобавлено: 2014-12-17 17:28 
Не в сети
Администратор
Администратор
Аватара пользователя
Раздал: 51.58 ТБ
Скачал: 620.08 ГБ
Ратио: 85.182


Зарегистрирован: 2010-11-09 02:24
Сообщения: 44652
Откуда: Земля Санникова
Мальвиль / Malevil

#777
Страна: Франция, Германия
Жанр: Драма, постапокалипсис
Год выпуска: 1981
Продолжительность: 01:55:10

Перевод: Одноголосый закадровый RideR (Eazin)
Cубтитры: нет
Режиссер: Кристиан Де Шалонж / Christian de Chalonge

В ролях: Мишель Серро - Эммануель Комте (Мэр)
Жак Дютрон - Колен
Жак Вильре - Момо
Робер Дери - Пейсу
Ганс Зишлер - Ветеринар
Эмели Лиху - Мена
Жан Луи Трентиньян - Фулберт (Директор)
Пенелопа Палмер - Эвелина
Жан Левре - аптекарь Бувре
Жаклин Парент - Кати

Описание: По одноименному роману Роберта Мерля.
В этом французском научно-фантастическом фильме в Европе происходит ядерная война. Группа людей, во главе с мэром городка(и по совместительству - владельцем замка) укрываестя в подвале старинного замка Мальвиль. Когда они выходят наружу, то видят что все здания в округе получили серьезные повреждения, а на земле не осталось практически ни единого растения. Уцелевшие пытаются восстановить замок и наладить жизнь в общине. Однако вскоре они встречают другую группу выживших во главе с "Директором" - дорвавшимся до власти психопатом. Директор настолько запугал и затравил своих подчинённых, что те даже и не помышляют ни о каком бунте. Но когда коварный Директор пытается обманом захватить богатые запасы Мальвиля и одну из его жительниц для своих сексуальных утех, мэр и его соратники по оружию наносят негодяю ответный удар.

Доп. информация: За исходник спасибо roma19981998
Синхрон русской дорожки kosmoaelita

Качество видео: DVDRip
Формат видео: AVI

Видео: 720x304 (2.37:1), 25 fps, XviD build 50 ~1599 kbps avg, 0.29 bit/pixel
Аудио: 48 kHz, AC3 Dolby Digital, 2/0 (L,R) ch, ~192 kbps

MediaInfo
Мальвиль - Malevil [by Edich2].avi
Format : AVI
Format/Info : Audio Video Interleave
File size : 1.45 GiB
Duration : 1h 55mn
Overall bit rate : 1 802 Kbps
Movie name : Мальвиль - Malevil [by Edich2]
Director : Rip by Edich2
Writing application : VirtualDubMod 1.5.10.2 (build 2540/release)
Comment : RuTracker.org

Video
ID : 0
Format : MPEG-4 Visual
Format profile : Advanced Simple@L5
Format settings, BVOP : 2
Format settings, QPel : No
Format settings, GMC : No warppoints
Format settings, Matrix : Custom
Codec ID : XVID
Codec ID/Hint : XviD
Duration : 1h 55mn
Bit rate : 1 600 Kbps
Width : 720 pixels
Height : 304 pixels
Display aspect ratio : 2.35:1
Frame rate : 25.000 fps
Color space : YUV
Chroma subsampling : 4:2:0
Bit depth : 8 bits
Scan type : Progressive
Compression mode : Lossy
Bits/(Pixel*Frame) : 0.292
Stream size : 1.29 GiB (89%)
Writing library : XviD 1.2.1 (UTC 2008-12-04)

Audio
ID : 1
Format : AC-3
Format/Info : Audio Coding 3
Mode extension : CM (complete main)
Format settings, Endianness : Big
Codec ID : 2000
Duration : 1h 55mn
Bit rate mode : Constant
Bit rate : 192 Kbps
Channel count : 2 channels
Channel positions : Front: L R
Sampling rate : 48.0 KHz
Bit depth : 16 bits
Compression mode : Lossy
Stream size : 158 MiB (11%)
Alignment : Split accross interleaves
Interleave, duration : 40 ms (1.00 video frame)
Interleave, preload duration : 500 ms


Скриншоты





У вас нет необходимых прав для просмотра вложений в этом сообщении.

_________________


Вернуться к началу
 Профиль  
Ответить с цитатой  
  • Торрент
Автор: oartemka178 Хэш: ---
Добавлен: 2014-12-17 17:25 Приватный: Нет (DHT включён)
Статус:
---
Размер: 1.45 ГБ (1 556 047 872 байт)
Изменил:
---
Скачали: 1 (Раздающих: 0%)
Причина:
---
Здоровье: 0%
Сидеров: 0 Личеров: 0
Скорость раздачи: 0 байт/сек Скорость скачивания: 0 байт/сек
Последний сидер: Нет Последний личер: Нет
Для скачивания торрента необходимо зарегистрироваться или войти на трекер.
Показать сообщения за:  Поле сортировки  
Начать новую тему Ответить на тему  [ 1 сообщение ] 

Часовой пояс: UTC + 3 часа


Кто сейчас на конференции

Сейчас этот форум просматривают: нет зарегистрированных пользователей и гости: 1


Вы не можете начинать темы
Вы не можете отвечать на сообщения
Вы не можете редактировать свои сообщения
Вы не можете удалять свои сообщения
Вы не можете добавлять вложения

Найти:
Перейти:  
Переместиться наверх