Часовой пояс: UTC + 3 часа




Начать новую тему Ответить на тему  [ 1 сообщение ] 
Автор Сообщение
СообщениеДобавлено: 2014-12-17 18:02 
Не в сети
Администратор
Администратор
Аватара пользователя
Раздал: 51.58 ТБ
Скачал: 620.08 ГБ
Ратио: 85.182


Зарегистрирован: 2010-11-09 02:24
Сообщения: 44604
Откуда: Земля Санникова
Ширли Валентайн / Shirley Valentine

#777
Страна: США, Великобритания
Жанр: лирическая комедия
Год выпуска: 1989
Продолжительность: 1:44:09

Перевод: Профессиональный (многоголосый закадровый) ТРК «Петербург-Пятый канал»
Cубтитры: нет
Режиссер: Льюис Гилберт / Lewis Gilbert

В ролях: Полин Коллинз, Том Конти, Джулия МакКензи, Элисон Стедман, Джоанна Ламли, Сильвия Симс, Бернард Хилл, Джордж Костиган

Описание: 1. Ширли Валентайн – домохозяйка, живущая в провинциальном Ливерпуле. Лишь природное чувство юмора позволяет ей не умереть со скуки.
Вдоволь наговорившись со стенами своей кухни, Ширли, по совету подруги, решает совершить авантюрное путешествие в Грецию.
Бросив мужа и детей, она разъезжает по Средиземному морю в компании немолодого греческого красавца.

Номинации на «Золотой глобус» и «Оскар» за лучшую женскую роль, премия БАФТА.

2. Кто бы мог подумать, что режиссер фильма «Мунрейкер» о Джеймсе Бонде через десять лет снимет лирическую комедию об отчаянной домохозяйке. Заглавная героиня похожа на Бриджет Джоунс после серебряной свадьбы, но не с интеллигентом, а с продавцом стройматериалов. Надоело ей быть «кухонной феей» и решила она сбежать в Грецию, то есть туда, где все есть, даже удалые молодцы с усами как сапожная щетка. Но это я так, балагурю. На самом деле это очень трогательный фильм, заставляющий нас призадуматься о том, правильно ли мы живем.

Доп. информация: Релиз

Качество видео: HDTVRip
Формат видео: AVI

Видео: 720x400 (1.80:1), 25 fps, XviD build 50 ~1798 kbps avg, 0.25 bit/pixel
Аудио: 48 kHz, AC3 Dolby Digital, 2/0 (L,R) ch, ~192 kbps

MediaInfo
Ширли Валентайн - Shirley Valentine [by Edich2].avi
Format : AVI
Format/Info : Audio Video Interleave
File size : 1.46 GiB
Duration : 1h 44mn
Overall bit rate : 2 001 Kbps
Movie name : Ширли Валентайн - Shirley Valentine [by Edich2]
Director : Rip by Edich2
Writing application : VirtualDubMod 1.5.10.3 | http://www.virtualdub-fr.org || (build 2550/release)
Comment : RuTracker.org

Video
ID : 0
Format : MPEG-4 Visual
Format profile : Advanced Simple@L5
Format settings, BVOP : 2
Format settings, QPel : No
Format settings, GMC : No warppoints
Format settings, Matrix : Custom
Codec ID : XVID
Codec ID/Hint : XviD
Duration : 1h 44mn
Bit rate : 1 799 Kbps
Width : 720 pixels
Height : 400 pixels
Display aspect ratio : 16:9
Frame rate : 25.000 fps
Color space : YUV
Chroma subsampling : 4:2:0
Bit depth : 8 bits
Scan type : Progressive
Compression mode : Lossy
Bits/(Pixel*Frame) : 0.250
Stream size : 1.31 GiB (90%)
Writing library : XviD 1.2.1 (UTC 2008-12-04)

Audio
ID : 1
Format : AC-3
Format/Info : Audio Coding 3
Mode extension : CM (complete main)
Format settings, Endianness : Big
Codec ID : 2000
Duration : 1h 44mn
Bit rate mode : Constant
Bit rate : 192 Kbps
Channel count : 2 channels
Channel positions : Front: L R
Sampling rate : 48.0 KHz
Bit depth : 16 bits
Compression mode : Lossy
Stream size : 143 MiB (10%)
Alignment : Split accross interleaves
Interleave, duration : 40 ms (1.00 video frame)
Interleave, preload duration : 500 ms


Скриншоты





У вас нет необходимых прав для просмотра вложений в этом сообщении.

_________________


Вернуться к началу
 Профиль  
Ответить с цитатой  
  • Торрент
Автор: oartemka178 Хэш: ---
Добавлен: 2014-12-17 17:59 Приватный: Нет (DHT включён)
Статус:
---
Размер: 1.46 ГБ (1 562 726 400 байт)
Изменил:
---
Скачали: 0 (Раздающих: 0%)
Причина:
---
Здоровье: 0%
Сидеров: 0 Личеров: 0
Скорость раздачи: 0 байт/сек Скорость скачивания: 0 байт/сек
Последний сидер: Нет Последний личер: Нет
Для скачивания торрента необходимо зарегистрироваться или войти на трекер.
Показать сообщения за:  Поле сортировки  
Начать новую тему Ответить на тему  [ 1 сообщение ] 

Часовой пояс: UTC + 3 часа


Кто сейчас на конференции

Сейчас этот форум просматривают: нет зарегистрированных пользователей и гости: 1


Вы не можете начинать темы
Вы не можете отвечать на сообщения
Вы не можете редактировать свои сообщения
Вы не можете удалять свои сообщения
Вы не можете добавлять вложения

Найти:
Перейти:  
cron
Переместиться наверх