Часовой пояс: UTC + 3 часа




Начать новую тему Ответить на тему  [ 1 сообщение ] 
Автор Сообщение
СообщениеДобавлено: 2014-12-17 18:02 
Не в сети
Администратор
Администратор
Аватара пользователя
Раздал: 51.58 ТБ
Скачал: 620.08 ГБ
Ратио: 85.182


Зарегистрирован: 2010-11-09 02:24
Сообщения: 44604
Откуда: Земля Санникова
[size=24]Индиана Джонс: В поисках утраченного ковчега / Indiana Jones: Raiders of the Lost Ark


#777
Страна: США
Жанр: приключения
Год выпуска: 1981
Продолжительность: 01:55:18


Перевод #1: Профессиональный (многоголосый, закадровый) DVD [Текст читали: Алексей Мясников, Александр Комлев и др.]
Перевод #2: Профессиональный (многоголосый, закадровый) ТНТ [Текст читали: Владимир Вихров, Олег Форостенко, Алексей Сафонов и Любовь Германова]
Cубтитры: нет
Оригинальная аудиодорожка: английский


Режиссер: Стивен Спилберг / Steven Spielberg


В ролях: Харрисон Форд, Карен Аллен, Пол Фримен, Рональд Лейси, Джон Рис-Дэвис, Денхолм Эллиот, Альфред Молина, Вольф Калер, Энтони Хиггинс, Вик Тэблиан


Описание: Известный археолог и специалист по оккультным наукам доктор Джонс получает опасное задание от правительства США. Он должен отправиться на поиски уникальной реликвии — священного Ковчега. Но Индиана и не подозревает, что аналогичный приказ уже получили тайные агенты Адольфа Гитлера…
Этим потрясающим фильмом продюсер Джордж Лукас и режиссер Стивен Спилберг положили начало саги о странствиях благородного доктора Джонса по всевозможным уголкам земного шара.


Качество видео: BDRip
Формат видео: AVI
Видео: 720x304 (2.37:1), 23.976 fps, XviD build 65 ~1872 kbps avg, 0.36 bit/pixel
Аудио #1: 48.0 KHz, AC3, 3/2 (L,C,R,l,r) + LFE ch, ~ 384.00 kbps (DVD)
Аудио #2: 48.0 KHz, AC3, 2 channels (L, R) ~ 192 kbps (ТНТ)
Аудио #3: 48.0 KHz, AC3, 2 channels (L, R) ~ 224 kbps (Оригинал)

[/size]

Благодарности
За видео благодарим kingsize87, за синхронизацию дороги ТНТ - Dreven. Дорога DVD из моей личной коллекции, за её синхронизацию благодарим xxllxx


MediaInfo
General
Complete name : D:\Индиана Джонс-1 (DVD + ТНТ + Оригинал).avi
Format : AVI
Format/Info : Audio Video Interleave
Format profile : OpenDML
File size : 2.16 GiB
Duration : 1h 55mn
Overall bit rate : 2 679 Kbps
Movie name : Индиана Джонс: В поисках утраченного ковчега / Indiana Jones: Raiders of the Lost Ark (1981) BDRip
Director : sociolog_melvas
Genre : боевик, приключения
Writing application : VirtualDubMod 1.5.10.2 (build 2540/release)
Writing library : VirtualDubMod build 2540/release

Video
ID : 0
Format : MPEG-4 Visual
Format profile : Advanced Simple@L5
Format settings, BVOP : 1
Format settings, QPel : No
Format settings, GMC : No warppoints
Format settings, Matrix : Custom
Codec ID : XVID
Codec ID/Hint : XviD
Duration : 1h 55mn
Bit rate : 1 855 Kbps
Width : 720 pixels
Height : 304 pixels
Display aspect ratio : 2.35:1
Frame rate : 23.976 fps
Color space : YUV
Chroma subsampling : 4:2:0
Bit depth : 8 bits
Scan type : Progressive
Compression mode : Lossy
Bits/(Pixel*Frame) : 0.353
Stream size : 1.49 GiB (69%)
Writing library : XviD 65

Audio #1
ID : 1
Format : AC-3
Format/Info : Audio Coding 3
Mode extension : CM (complete main)
Codec ID : 2000
Duration : 1h 55mn
Bit rate mode : Constant
Bit rate : 384 Kbps
Channel(s) : 6 channels
Channel positions : Front: L C R, Side: L R, LFE
Sampling rate : 48.0 KHz
Bit depth : 16 bits
Compression mode : Lossy
Stream size : 317 MiB (14%)
Alignment : Split accross interleaves
Interleave, duration : 42 ms (1.00 video frame)
Interleave, preload duration : 500 ms


Скриншоты



У вас нет необходимых прав для просмотра вложений в этом сообщении.

_________________


Вернуться к началу
 Профиль  
Ответить с цитатой  
  • Торрент
Автор: oartemka178 Хэш: ---
Добавлен: 2014-12-17 17:59 Приватный: Нет (DHT включён)
Статус:
---
Размер: 2.16 ГБ (2 316 861 440 байт)
Изменил:
---
Скачали: 0 (Раздающих: 0%)
Причина:
---
Здоровье: 0%
Сидеров: 0 Личеров: 0
Скорость раздачи: 0 байт/сек Скорость скачивания: 0 байт/сек
Последний сидер: Нет Последний личер: Нет
Для скачивания торрента необходимо зарегистрироваться или войти на трекер.
Показать сообщения за:  Поле сортировки  
Начать новую тему Ответить на тему  [ 1 сообщение ] 

Часовой пояс: UTC + 3 часа


Кто сейчас на конференции

Сейчас этот форум просматривают: нет зарегистрированных пользователей и гости: 2


Вы не можете начинать темы
Вы не можете отвечать на сообщения
Вы не можете редактировать свои сообщения
Вы не можете удалять свои сообщения
Вы не можете добавлять вложения

Найти:
Перейти:  
cron
Переместиться наверх