Часовой пояс: UTC + 3 часа




Начать новую тему Ответить на тему  [ 1 сообщение ] 
Автор Сообщение
СообщениеДобавлено: 2014-12-17 18:02 
Не в сети
Администратор
Администратор
Аватара пользователя
Раздал: 51.58 ТБ
Скачал: 620.08 ГБ
Ратио: 85.182


Зарегистрирован: 2010-11-09 02:24
Сообщения: 44604
Откуда: Земля Санникова
Вердикт / The Verdict


#777
Страна: США
Жанр: драма
Год выпуска: 1982
Продолжительность: 02:08:58

Перевод: Профессиональный (дублированный) со вставками MVO на места без перевода
Cубтитры: нет

Режиссер: Сидни Люмет / Sidney Lumet

В ролях: Пол Ньюман, Шарлотта Рэмплинг, Джек Уорден, Джеймс Мейсон, Майло О’Ши, Линдси Краус, Эд Биннс, Джули Бовассо

Описание: Когда-то Фрэнк Гэлвин был хорошим адвокатом. Но дружба с бутылкой до добра не доводит. И теперь он — консультант по юридическим вопросам в похоронной конторе.

Бывший коллега Микки Моррисей, не забывший о способностях Фрэнка, подкидывает ему интересное дело. Это шанс попробовать снова встать на ноги и попытаться занять достойное место в жизни.

Молодая женщина, получившая во время родов анестезию, превращается в прикованную к постели тяжелобольную. Ее родственники хотят подать в суд на респектабельную бостонскую больницу и на церковь, которой она принадлежит, чтобы получить компенсацию за причиненный физический и моральный ущерб.

Фрэнк уверен, что сторона-ответчик виновна, но ни за что не признает медицинскую ошибку…


Доп. информация:

Качество видео: BDRip | Neo_s/BD-Remux 1080p
Формат видео: AVI

Видео: 720x384 (1.88:1), 23.976 fps, XviD build 73 ~1508 kbps avg, 0.23 bit/pixel
Аудио: 48 kHz, AC3 Dolby Digital, 2/0 (L,R) ch, ~96 kbps


MediaInfo
Общее
Полное имя : C:\Documents and Settings\Пользователь\Рабочий стол\Торрентс.ру\The.Verdict.1982.BDRip.Dub_by_LBS.avi
Формат : AVI
Формат/Информация : Audio Video Interleave
Размер файла : 1,45 Гбайт
Продолжительность : 2 ч. 8 м.
Общий поток : 1613 Кбит/сек
Режиссёр : Last Boy Scout
Программа кодирования : VirtualDubMod 1.5.10.3 | http://www.virtualdub-fr.org || (build 2550/release)
Правообладатель : rutracker.org 13.02.2014
Примечание : BDRip Dub

Видео
Идентификатор : 0
Формат : MPEG-4 Visual
Профиль формата : Advanced Simple@L5
Параметр BVOP формата : 1
Параметр QPel формата : Нет
Параметр GMC формата : Без точки перехода
Параметр матрицы формата : Выборочная
Идентификатор кодека : XVID
Идентификатор кодека/Подсказка : XviD
Продолжительность : 2 ч. 8 м.
Битрейт : 1509 Кбит/сек
Ширина : 720 пикселей
Высота : 384 пикселя
Соотношение сторон : 1,85:1
Частота кадров : 23,976 кадра/сек
Цветовое пространство : YUV
Субдискретизация насыщенности : 4:2:0
Битовая глубина : 8 бит
Тип развёртки : Прогрессивная
Метод сжатия : С потерями
Бит/(Пиксели*Кадры) : 0.228
Размер потока : 1,36 Гбайт (94%)
Библиотека кодирования : XviD 73

Аудио
Идентификатор : 1
Формат : AC-3
Формат/Информация : Audio Coding 3
Расширение режима : CM (complete main)
Параметр Endianness формата : Big
Идентификатор кодека : 2000
Продолжительность : 2 ч. 8 м.
Вид битрейта : Постоянный
Битрейт : 96,0 Кбит/сек
Каналы : 2 канала
Расположение каналов : Front: L R
Частота : 48,0 КГц
Битовая глубина : 16 бит
Метод сжатия : С потерями
Размер потока : 88,0 Мбайт (6%)
Выравнивание : Разделение по промежуткам
Продолжительность промежутка : 42 мс. (1,01 видеокадр)
Время предзагрузки промежутка : 500 мс.


Скриншоты



Сравнение
http://rustrek.ru/viewtopic.php?t=4106298
http://screenshotcomparison.com/comparison/62350
с Юpистом замена раздачи согласована


У вас нет необходимых прав для просмотра вложений в этом сообщении.

_________________


Вернуться к началу
 Профиль  
Ответить с цитатой  
  • Торрент
Автор: oartemka178 Хэш: ---
Добавлен: 2014-12-17 17:59 Приватный: Нет (DHT включён)
Статус:
---
Размер: 1.45 ГБ (1 560 621 056 байт)
Изменил:
---
Скачали: 0 (Раздающих: 0%)
Причина:
---
Здоровье: 0%
Сидеров: 0 Личеров: 0
Скорость раздачи: 0 байт/сек Скорость скачивания: 0 байт/сек
Последний сидер: Нет Последний личер: Нет
Для скачивания торрента необходимо зарегистрироваться или войти на трекер.
Показать сообщения за:  Поле сортировки  
Начать новую тему Ответить на тему  [ 1 сообщение ] 

Часовой пояс: UTC + 3 часа


Кто сейчас на конференции

Сейчас этот форум просматривают: нет зарегистрированных пользователей и гости: 1


Вы не можете начинать темы
Вы не можете отвечать на сообщения
Вы не можете редактировать свои сообщения
Вы не можете удалять свои сообщения
Вы не можете добавлять вложения

Найти:
Перейти:  
Переместиться наверх