Часовой пояс: UTC + 3 часа




Начать новую тему Ответить на тему  [ 1 сообщение ] 
Автор Сообщение
СообщениеДобавлено: 2014-12-17 18:02 
Не в сети
Администратор
Администратор
Аватара пользователя
Раздал: 51.58 ТБ
Скачал: 620.08 ГБ
Ратио: 85.182


Зарегистрирован: 2010-11-09 02:24
Сообщения: 44604
Откуда: Земля Санникова
Каникулы / Vacation / National Lampoon's Vacation

#777
Страна: США
Жанр: комедия, семейный, приключения
Год выпуска: 1983
Продолжительность: 01:38:17

Перевод: Профессиональный (многоголосый закадровый) РТР
Перевод 2: Профессиональный (многоголосый закадровый) НТВ
Перевод 3: Профессиональный (многоголосый закадровый) СТС
Cубтитры: нет
Режиссер: Харольд Рэмис / Harold Ramis

В ролях: Чеви Чейз, Беверли Д’Анджело, Энтони Майкл Холл, Дэна Баррон, Имоджен Кока, Кристи Бринкли, Рэнди Куэйд, Джон Кэнди, Эдди Брекен, Брайан Дойл-Мюррей

Описание: Итак! Всё решено и спланировано. Уже собраны и запакованы вещи. И, кажется,- ничто не сможет помешать вкусить прелести заслуженного отпуска.

Не тут то было! Когда семейство Грисвольдов в полном составе собралось на каникулы, начался настоящий цирк! Руководитель «мероприятия», глава семьи Кларк Грисвольд, страстно жаждет умиротворённого единения семьи во время путешествия через всю страну, обещающего быть весьма захватывающим!

Но сладким мечтам папаши Грисвольда не суждено сбыться: каникулы превращаются в поездку на американских горках в 2 460 миль в длину! Каждый вносит свою «лепту» в «разнообразие» культурной программы отдыха — и дядя Эдди, и тётя Эдна, и соблазнительница в «Феррари» и, конечно, тучный охранник!

Доп. информация:

Переводы на трекере впервые.
В переводе РТР в диалогах 01:23:50 - 01:23:58 и 01:25:00 - 01:25:17 вставка с СТС
В переводе СТС в диалоге 00:30:53 - 00:31:28 вставка с РТР
Дорожка от НТВ полная без вставок.

Текст Читали:
РТР - Сергей Балабанов, Борис Шувалов, Людмила Шувалова, Татьяна Божок
СТС - Дмитрий Полонский, Всеволод Кузнецов, Любовь Германова, Людмила Шувалова
НТВ - Андрей Ярославцев, Наталья Казначеева и Ольга Гаспарова.

Сэмпл: http://www.sendspace.com/file/3a3ejz

Качество видео: BDRip (Исходник)
Формат видео: AVI

Видео: XviD, 704x400 (16:9), 23.976 fps, 1911 kbps avg
Аудио:
Русский (РТР-ТВ3) AC3, 48.0 khz, 2 ch, 192 kbps (IPTVRip by mixaiil77)
Русский (НТВ) AC3, 48.0 khz, 2 ch, 192 kbps (VHSRip by Masha_New)
Русский (СТС) AC3, 48.0 khz, 2 ch, 192 kbps (VHSRip by Krasnovv)

MediaInfo
Общее
Полное имя : E:\Альберт\Downloads\Каникулы\Каникулы.avi
Формат : AVI
Формат/Информация : Audio Video Interleave
Размер файла : 1,45 Гбайт
Продолжительность : 1 ч. 38 м.
Общий поток : 2113 Кбит/сек
Название фильма : Vacation / National Lampoon's Vacation (1983) BDRip
Режиссёр : Vиkt0R
Жанр : Adventure/Comedy/Romance
Программа кодирования : VirtualDubMod 1.5.10.2 (build 2540/release)
Библиотека кодирования : VirtualDubMod build 2540/release

Видео
Идентификатор : 0
Формат : MPEG-4 Visual
Профиль формата : Advanced Simple@L5
Параметр BVOP формата : 1
Параметр QPel формата : Нет
Параметр GMC формата : Без точки перехода
Параметр матрицы формата : Выборочная
Идентификатор кодека : XVID
Идентификатор кодека/Подсказка : XviD
Продолжительность : 1 ч. 38 м.
Битрейт : 1911 Кбит/сек
Ширина : 704 пикселя
Высота : 400 пикселей
Соотношение сторон : 16:9
Частота кадров : 23,976 кадра/сек
Цветовое пространство : YUV
Субдискретизация насыщенности : 4:2:0
Битовая глубина : 8 бит
Тип развёртки : Прогрессивная
Метод сжатия : С потерями
Бит/(Пиксели*Кадры) : 0.283
Размер потока : 1,31 Гбайт (90%)
Библиотека кодирования : XviD 1.2.1 (UTC 2008-12-04)

Аудио
Идентификатор : 1
Формат : AC-3
Формат/Информация : Audio Coding 3
Расширение режима : CM (complete main)
Параметр Endianness формата : Big
Идентификатор кодека : 2000
Продолжительность : 1 ч. 38 м.
Вид битрейта : Постоянный
Битрейт : 192 Кбит/сек
Каналы : 2 канала
Расположение каналов : Front: L R
Частота : 48,0 КГц
Битовая глубина : 16 бит
Метод сжатия : С потерями
Размер потока : 135 Мбайт (9%)
Выравнивание : Разделение по промежуткам
Продолжительность промежутка : 42 мс. (1,00 видеокадр)
Время предзагрузки промежутка : 500 мс.


Скриншот c названием фильма



Скриншоты


Прошу оставаться на раздаче как можно дольше, чтобы ее поддерживать. Своим уходом вы не даете возможность скачать раздачу другим людям.

ТОРРЕНТ ФАЙЛ ПЕРЕЗАЛИТ 08.02.2014 Причина:
- добавлена дорожка от НТВ
Прошу Перекачать Торрент.


У вас нет необходимых прав для просмотра вложений в этом сообщении.

_________________


Вернуться к началу
 Профиль  
Ответить с цитатой  
  • Торрент
Автор: oartemka178 Хэш: ---
Добавлен: 2014-12-17 17:59 Приватный: Нет (DHT включён)
Статус:
---
Размер: 1.71 ГБ (1 840 694 784 байт)
Изменил:
---
Скачали: 1 (Раздающих: 0%)
Причина:
---
Здоровье: 0%
Сидеров: 0 Личеров: 0
Скорость раздачи: 0 байт/сек Скорость скачивания: 0 байт/сек
Последний сидер: Нет Последний личер: Нет
Для скачивания торрента необходимо зарегистрироваться или войти на трекер.
Показать сообщения за:  Поле сортировки  
Начать новую тему Ответить на тему  [ 1 сообщение ] 

Часовой пояс: UTC + 3 часа


Кто сейчас на конференции

Сейчас этот форум просматривают: нет зарегистрированных пользователей и гости: 3


Вы не можете начинать темы
Вы не можете отвечать на сообщения
Вы не можете редактировать свои сообщения
Вы не можете удалять свои сообщения
Вы не можете добавлять вложения

Найти:
Перейти:  
cron
Переместиться наверх