Часовой пояс: UTC + 3 часа




Начать новую тему Ответить на тему  [ 1 сообщение ] 
Автор Сообщение
СообщениеДобавлено: 2014-12-17 18:03 
Не в сети
Администратор
Администратор
Аватара пользователя
Раздал: 51.58 ТБ
Скачал: 620.08 ГБ
Ратио: 85.182


Зарегистрирован: 2010-11-09 02:24
Сообщения: 44604
Откуда: Земля Санникова
Откройте, полиция! / My New Partner / Les ripoux



#777
Страна: Франция
Жанр: комедия, криминал
Год выпуска: 1984
Продолжительность: 1h 46mn 38s

Перевод: Профессиональный (дублированный) USSR
Перевод 2: Профессиональный (многоголосый закадровый) CP-Digital
Перевод 3: Профессиональный (многоголосый закадровый) Ukrainian Отдельным файлом
Cубтитры: русские
Оригинальная аудиодорожка: французский

Режиссер: Клод Зиди / Claude Zidi

В ролях
Филипп Нуаре / Philippe Noiret
Тьерри Лермитт / Thierry Lhermitte
Режин, Грейс Де Капитани, Клод Броссе, Альбер Симоно, Жюльен Гиомар, Анри Атталь, Абу Бакар, Пьер Батон


Описание
Опытный полицейский-пройдоха Рене обучает хитростям мошенничества своего юного напарника-идеалиста Франсуа. Напарник так входит в раж, что затмевает своего насквозь коррумпированного наставника.


Сэмпл

IMDb: 7.20 (2485)

Качество видео: BDRip-AVC Remux.1080p.HDClub
Формат видео: MKV

Видео: AVC 3040 Kbps 960 x 574 (1.672) 24.000 fps
Аудио: AC-3 192 Kbps 2 channels, 48.0 KHz Советский дубляж
Аудио 2: AC-3 448 Kbps 6 channels, 48.0 KHz MVO CP-Digital
Аудио 3: AC-3 224 Kbps 2 channels, 48.0 KHz Fre
Аудио 4: AC-3 192 Kbps 2 channels, 48.0 KHz Ukr MVO Отдельным файлом
Формат субтитров: softsub (SRT)

MediaInfo | Log


Log
raw [info]: 960x574p 1:1 @ 10000000/416667 fps (cfr)
x264 [info]: using SAR=1/1
x264 [info]: using cpu capabilities: MMX2 SSE2Fast SSSE3 SSE4.2 AVX
x264 [info]: profile High, level 4.1

x264 [info]: frame I:979 Avg QP:18.83 size: 75287
x264 [info]: frame P:30593 Avg QP:22.13 size: 29265
x264 [info]: frame B:122000 Avg QP:23.71 size: 11988
x264 [info]: consecutive B-frames: 1.1% 1.9% 6.5% 16.2% 15.1% 43.3% 7.5% 3.4% 5.1%
x264 [info]: mb I I16..4: 2.1% 86.5% 11.5%
x264 [info]: mb P I16..4: 0.3% 8.8% 0.9% P16..4: 34.1% 40.8% 13.1% 1.1% 0.1% skip: 0.9%
x264 [info]: mb B I16..4: 0.0% 1.1% 0.1% B16..8: 44.3% 20.8% 3.5% direct: 6.4% skip:23.9% L0:46.0% L1:48.2% BI: 5.8%
x264 [info]: 8x8 transform intra:88.7% inter:66.1%
x264 [info]: direct mvs spatial:98.5% temporal:1.5%
x264 [info]: coded y,uvDC,uvAC intra: 95.4% 73.9% 33.4% inter: 41.0% 27.2% 1.0%
x264 [info]: i16 v,h,dc,p: 32% 22% 8% 38%
x264 [info]: i8 v,h,dc,ddl,ddr,vr,hd,vl,hu: 7% 6% 5% 12% 17% 15% 15% 12% 12%
x264 [info]: i4 v,h,dc,ddl,ddr,vr,hd,vl,hu: 10% 6% 2% 9% 17% 17% 15% 13% 11%
x264 [info]: i8c dc,h,v,p: 37% 25% 21% 18%
x264 [info]: Weighted P-Frames: Y:8.7% UV:2.8%
x264 [info]: ref P L0: 38.5% 12.4% 18.3% 7.1% 6.3% 4.5% 4.3% 2.3% 2.3% 1.8% 2.0% 0.3% 0.0%
x264 [info]: ref B L0: 67.1% 13.3% 6.8% 3.6% 2.7% 2.3% 1.9% 1.2% 0.7% 0.3%
x264 [info]: ref B L1: 91.5% 8.5%
x264 [info]: kb/s:3039.96

x264 [total]: encoded 153572 frames, 10.04 fps, 3039.96 kb/s

Format : Matroska
Format version : Version 4 / Version 2
File size : 2.91 GiB
Duration : 1h 46mn
Overall bit rate : 3 906 Kbps
Encoded date : UTC 2014-02-05 11:07:43
Writing application : mkvmerge v6.7.0 ('Back to the Ground') 32bit built on Jan 8 2014 15:03:17
Writing library : libebml v1.3.0 + libmatroska v1.4.1

Video
ID : 1
Format : AVC
Format/Info : Advanced Video Codec
Format profile : High@L4.1
Format settings, CABAC : Yes
Format settings, ReFrames : 11 frames
Codec ID : V_MPEG4/ISO/AVC
Duration : 1h 46mn
Bit rate : 3 040 Kbps
Width : 960 pixels
Height : 574 pixels
Display aspect ratio : 1.672
Frame rate mode : Constant
Frame rate : 24.000 fps
Color space : YUV
Chroma subsampling : 4:2:0
Bit depth : 8 bits
Scan type : Progressive
Bits/(Pixel*Frame) : 0.230
Stream size : 2.21 GiB (76%)
Writing library : x264 core 140 r2377 1ca7bb9
Encoding settings : cabac=1 / ref=11 / deblock=1:-2:-1 / analyse=0x3:0x133 / me=umh / subme=11 / psy=1 / psy_rd=1.00:0.05 / mixed_ref=1 / me_range=32 / chroma_me=1 / trellis=2 / 8x8dct=1 / cqm=0 / deadzone=21,11 / fast_pskip=0 / chroma_qp_offset=-3 / threads=12 / lookahead_threads=2 / sliced_threads=0 / nr=0 / decimate=1 / interlaced=0 / bluray_compat=0 / constrained_intra=0 / bframes=8 / b_pyramid=2 / b_adapt=2 / b_bias=0 / direct=3 / weightb=1 / open_gop=0 / weightp=2 / keyint=250 / keyint_min=23 / scenecut=40 / intra_refresh=0 / rc_lookahead=60 / rc=2pass / mbtree=1 / bitrate=3040 / ratetol=1.0 / qcomp=0.60 / qpmin=0 / qpmax=69 / qpstep=4 / cplxblur=20.0 / qblur=0.5 / ip_ratio=1.40 / aq=1:1.00
Language : French
Default : Yes
Forced : No

Audio #1
ID : 2
Format : AC-3
Format/Info : Audio Coding 3
Mode extension : CM (complete main)
Format settings, Endianness : Big
Codec ID : A_AC3
Duration : 1h 46mn
Bit rate mode : Constant
Bit rate : 192 Kbps
Channel(s) : 2 channels
Channel positions : Front: L R
Sampling rate : 48.0 KHz
Bit depth : 16 bits
Compression mode : Lossy
Stream size : 146 MiB (5%)
Title : Dub USSR
Language : Russian
Default : Yes
Forced : No

Audio #2
ID : 3
Format : AC-3
Format/Info : Audio Coding 3
Mode extension : CM (complete main)
Format settings, Endianness : Big
Codec ID : A_AC3
Duration : 1h 46mn
Bit rate mode : Constant
Bit rate : 448 Kbps
Channel(s) : 6 channels
Channel positions : Front: L C R, Side: L R, LFE
Sampling rate : 48.0 KHz
Bit depth : 16 bits
Compression mode : Lossy
Stream size : 342 MiB (11%)
Title : MVO (CP-Digital)
Language : Russian
Default : No
Forced : No

Audio #3
ID : 4
Format : AC-3
Format/Info : Audio Coding 3
Mode extension : CM (complete main)
Format settings, Endianness : Big
Codec ID : A_AC3
Duration : 1h 46mn
Bit rate mode : Constant
Bit rate : 224 Kbps
Channel(s) : 2 channels
Channel positions : Front: L R
Sampling rate : 48.0 KHz
Bit depth : 16 bits
Compression mode : Lossy
Stream size : 171 MiB (6%)
Title : Original
Language : French
Default : No
Forced : No

Text
ID : 5
Format : UTF-8
Codec ID : S_TEXT/UTF8
Codec ID/Info : UTF-8 Plain Text
Title : Rus
Language : Russian
Default : No
Forced : No

Menu
00:00:00.000 : en:00:00:00.000
00:10:15.541 : en:00:10:15.541
00:20:16.000 : en:00:20:16.000
00:27:12.915 : en:00:27:12.915
00:37:27.791 : en:00:37:27.791
00:47:08.416 : en:00:47:08.416
00:57:08.666 : en:00:57:08.666
01:03:20.750 : en:01:03:20.750
01:13:22.875 : en:01:13:22.875
01:20:30.541 : en:01:20:30.541
01:30:04.541 : en:01:30:04.541
01:37:52.832 : en:01:37:52.832


Скриншоты


Сравнение с этим релизом


У вас нет необходимых прав для просмотра вложений в этом сообщении.

_________________


Вернуться к началу
 Профиль  
Ответить с цитатой  
  • Торрент
Автор: oartemka178 Хэш: ---
Добавлен: 2014-12-17 17:59 Приватный: Нет (DHT включён)
Статус:
---
Размер: 3.05 ГБ (3 278 114 347 байт)
Изменил:
---
Скачали: 0 (Раздающих: 0%)
Причина:
---
Здоровье: 0%
Сидеров: 0 Личеров: 0
Скорость раздачи: 0 байт/сек Скорость скачивания: 0 байт/сек
Последний сидер: Нет Последний личер: Нет
Для скачивания торрента необходимо зарегистрироваться или войти на трекер.
Показать сообщения за:  Поле сортировки  
Начать новую тему Ответить на тему  [ 1 сообщение ] 

Часовой пояс: UTC + 3 часа


Кто сейчас на конференции

Сейчас этот форум просматривают: нет зарегистрированных пользователей и гости: 3


Вы не можете начинать темы
Вы не можете отвечать на сообщения
Вы не можете редактировать свои сообщения
Вы не можете удалять свои сообщения
Вы не можете добавлять вложения

Найти:
Перейти:  
cron
Переместиться наверх