Часовой пояс: UTC + 3 часа




Начать новую тему Ответить на тему  [ 1 сообщение ] 
Автор Сообщение
СообщениеДобавлено: 2014-12-17 18:03 
Не в сети
Администратор
Администратор
Аватара пользователя
Раздал: 51.58 ТБ
Скачал: 620.08 ГБ
Ратио: 85.182


Зарегистрирован: 2010-11-09 02:24
Сообщения: 44655
Откуда: Земля Санникова
#777
Да помогут нам небеса! / Помогите нам небеса
Heaven Help Us / Catholic Boys
Страна: США
Жанр: драма, комедия, мелодрама
Год выпуска: 1985
Продолжительность: 1:39:37

Перевод: Авторский (одноголосый закадровый) А.Дольский
Cубтитры: нет
Оригинальная аудиодорожка: английский

Режиссер: Майкл Диннер / Michael Dinner

В ролях: Дональд Сазерленд, Патрик Демпси, Эндрю МакКарти, Мэри Стюарт Мастерсон, Филип Боско, Нэнси Картрайт, Ярдли Смит, Джон Херд, Уоллес Шоун, Кейт Рид, Джей Пэттерсон, Дженнифер Дандас


Описание: Только что переведенный в новую школу парень пытается вписаться в новое окружение, одновременно с этим пытаясь найти подход к понравившейся ему девушке.


Качество видео: DVDRip
Формат видео: AVI

Видео: XviD, 656x400 (1,64:1), 25 fps, ~1700 kbps
Аудио 1: AC3 Dolby Digital, 48 kHz, 2 ch, 192 kbps (Rus)
Аудио 2: AC3 Dolby Digital, 48 kHz, 2 ch, 192 kbps (Eng)

#7
За русскую аудиодорожку спасибо alenavova и edich2

MediaInfo


ОбщееПолное имя : E:\FILMS\Heaven Help Us 1985 DVDRip.aviФормат : AVIФормат/Информация : Audio Video InterleaveРазмер файла : 1,46 ГбайтПродолжительность : 1 ч. 39 м.Общий поток : 2101 Кбит/секПрограмма кодирования : VirtualDubMod 1.5.10.2 (build 2542/release)Библиотека кодирования : VirtualDubMod build 2542/release

ВидеоИдентификатор : 0Формат : MPEG-4 VisualПрофиль формата : Advanced Simple@L5Параметр BVOP формата : 2Параметр QPel формата : НетПараметр GMC формата : Без точки переходаПараметр матрицы формата : ВыборочнаяИдентификатор кодека : XVIDИдентификатор кодека/Подсказка : XviDПродолжительность : 1 ч. 39 м.Битрейт : 1702 Кбит/секШирина : 656 пикселейВысота : 400 пикселейСоотношение сторон : 16:10Частота кадров : 25,000 кадров/секЦветовое пространство : YUVСубдискретизация насыщенности : 4:2:0Битовая глубина : 8 битТип развёртки : ПрогрессивнаяМетод сжатия : С потерямиБит/(Пиксели*Кадры) : 0.259Размер потока : 1,18 Гбайт (81%)Библиотека кодирования : XviD 65

Аудио #1Идентификатор : 1Формат : AC-3Формат/Информация : Audio Coding 3Расширение режима : CM (complete main)Параметр Endianness формата : BigИдентификатор кодека : 2000Продолжительность : 1 ч. 39 м.Вид битрейта : ПостоянныйБитрейт : 192 Кбит/секКаналы : 2 каналаРасположение каналов : Front: L RЧастота : 48,0 КГцБитовая глубина : 16 битМетод сжатия : С потерямиРазмер потока : 137 Мбайт (9%)Выравнивание : Разделение по промежуткамПродолжительность промежутка : 40 мс. (1,00 видеокадр)Время предзагрузки промежутка : 500 мс.

Аудио #2Идентификатор : 2Формат : AC-3Формат/Информация : Audio Coding 3Профиль формата : Dolby DigitalРасширение режима : CM (complete main)Параметр Endianness формата : BigИдентификатор кодека : 2000Продолжительность : 1 ч. 39 м.Вид битрейта : ПостоянныйБитрейт : 192 Кбит/секКаналы : 2 каналаРасположение каналов : Front: L RЧастота : 48,0 КГцБитовая глубина : 16 битМетод сжатия : С потерямиРазмер потока : 137 Мбайт (9%)Выравнивание : Разделение по промежуткамПродолжительность промежутка : 40 мс. (1,00 видеокадр)Время предзагрузки промежутка : 500 мс.



Скриншоты




У вас нет необходимых прав для просмотра вложений в этом сообщении.

_________________


Вернуться к началу
 Профиль  
Ответить с цитатой  
  • Торрент
Автор: oartemka178 Хэш: ---
Добавлен: 2014-12-17 17:59 Приватный: Нет (DHT включён)
Статус:
---
Размер: 1.46 ГБ (1 569 548 288 байт)
Изменил:
---
Скачали: 0 (Раздающих: 0%)
Причина:
---
Здоровье: 0%
Сидеров: 0 Личеров: 0
Скорость раздачи: 0 байт/сек Скорость скачивания: 0 байт/сек
Последний сидер: Нет Последний личер: Нет
Для скачивания торрента необходимо зарегистрироваться или войти на трекер.
Показать сообщения за:  Поле сортировки  
Начать новую тему Ответить на тему  [ 1 сообщение ] 

Часовой пояс: UTC + 3 часа


Кто сейчас на конференции

Сейчас этот форум просматривают: нет зарегистрированных пользователей и гости: 1


Вы не можете начинать темы
Вы не можете отвечать на сообщения
Вы не можете редактировать свои сообщения
Вы не можете удалять свои сообщения
Вы не можете добавлять вложения

Найти:
Перейти:  
Переместиться наверх