Часовой пояс: UTC + 3 часа




Начать новую тему Ответить на тему  [ 1 сообщение ] 
Автор Сообщение
СообщениеДобавлено: 2014-12-17 18:12 
Не в сети
Администратор
Администратор
Аватара пользователя
Раздал: 51.58 ТБ
Скачал: 620.08 ГБ
Ратио: 85.182


Зарегистрирован: 2010-11-09 02:24
Сообщения: 44604
Откуда: Земля Санникова
Рука, кормящая мертвецов / Дыхание смерти / The Hand That Feeds the Dead / La mano che nutre la morte / Evil Face / lmn nefesi



#777



Год выпуска: 1974
Страна: Италия, Турция
Жанр: триллер, ужасы, готика
Продолжительность: 01:29:47
Перевод:

Субтитры [color=blue][b]Bellena
Оригинал (итальянский)[/color][/b]
Субтитры: русские

Режиссер: Серджио Гарроне / Sergio Garrone(только в итальянской версии), Йылмаз Дуру / Yilmaz Duru(только в турецкой версии)


В ролях: Клаус Кински, Айхан Ишик, Катя Кристине, Марсия Дамон, Кармэн Сильвия, Эрол Таш, Стэлла Кальдерони, Карла Манчини и др.


Описание: В 1974 году итальянский режиссёр Серджио Гарроне, актёр Клаус Кински и несколько итальянских актрис поехали в Турцию, чтобы в сотрудничестве с тамошними кинематографистами снять готический фильм ужасов под названием «Рука, кормящая смерть». Предприимчивый и экономный итальянец вместе с ещё более экономными турками обманули Клауса Кински, сказав ему, что будут снимать всего лишь один фильм, чтобы как можно меньше заплатить именитому актёру. До сих пор неизвестно, узнал он об обмане или нет, но в результате этого сотрудничества на свет появилось два совершенно разных фильма, которые всё же содержат ряд одинаковых сцен. Первый, это «Рука, кормящая смерть», а второй «Любовницы монстра», который вышел через месяц после премьеры первого. Плюс к этому турки смонтировали свою версию первого фильма и выпустили её у себя в стране под названием «Дыхание смерти». Эта версия тоже отличается от двух вышеназванных фильмов, но всё же является переделкой первого из них и не имеет никакого отношения ко второму, который, скорее всего, в Турции не демонстрировался.

Для начала поговорим о сюжете, ибо он одинаков и в итальянской и в турецкой версии. Авторы сценария при его написании, видимо, опирались на такие фильмы как «Глаза без лица» Жоржа Франжу и «Ужасный Доктор Орлофф» Хесуса Франко. Действие происходит в старинном особняке, в котором живет загадочный Доктор Нижинский (Клаус Кински) и его жена Таня (Катя Кристине). Несколько лет назад здесь жил отец Тани, непризнанный гений Иван Рассимов, который погиб в пожаре после неудачного эксперимента. Пожар не пощадил и Таню, большая часть тела которой покрыта ужасными ожогами. И теперь её муж, Сергей Нижинский, продолжает дело Рассимова с целью вернуть супруге былую красоту. А для этого нужны трупы молоденьких девушек. Ну, это не проблема. Сергей заманивает в особняк ищущих приключений дам, после чего его слуга Иван (Эрол Таш) убивает девушек и приносит их трупы в секретную лабораторию. Однажды волею случая в особняк попадает молодая пара Алекс (Айхан Ишик) и Маша (Катя Кристине). Маша оказалась настолько похожа на жену Нижинского, что тот сделал всё возможное, чтобы задержать её в особняке. В одну ночь с помощью жены и Ивана Нижинский убил девушку и наконец-то вернул своей суженой прежний облик. Но та оказалась непорядочной женщиной и вонзила нож в спину своему спасителю, решив остаться с Алексом. Но её счастье было недолгим, ибо призрак Сергея всё ещё находится в особняке и жаждет мести…



Качество: DVDRip /[color=darkgreen]Исходник DVD5 (Custom)
Формат: AVI
Видео кодек: XviD
Видео: 672x400 (1.68:1), 23.976 fps, XviD build 73 ~898 kbps avg, 0.14 bit/pixel
Аудио: 48 kHz, AC3 Dolby Digital, 2/0 (L,R) ch, ~256 kbps
[/color]





МИ
General
Complete name : D:\TORRENTS for WORK\RIPS in WORK\Рип Рука, кормящая мертвецов 745\Ruka_Kormyashaya_mertvetsov\Ruka_Kormyashaya_mertvetsov_1974_DVDRip_Menen.avi
Format : AVI
Format/Info : Audio Video Interleave
File size : 747 MiB
Duration : 1h 29mn
Overall bit rate : 1 164 Kbps
Movie name : Ruka_Kormyashaya_mertvetsov_1974_DVDRip_Menen
Director : Menen
Writing application : VirtualDubMod 1.5.10.2 (build 2540/release)

Video
ID : 0
Format : MPEG-4 Visual
Format profile : Advanced Simple@L5
Format settings, BVOP : 1
Format settings, QPel : No
Format settings, GMC : No warppoints
Format settings, Matrix : Custom
Codec ID : XVID
Codec ID/Hint : XviD
Duration : 1h 29mn
Bit rate : 898 Kbps
Width : 672 pixels
Height : 400 pixels
Display aspect ratio : 1.680
Frame rate : 23.976 fps
Color space : YUV
Chroma subsampling : 4:2:0
Bit depth : 8 bits
Scan type : Progressive
Compression mode : Lossy
Bits/(Pixel*Frame) : 0.139
Stream size : 577 MiB (77%)
Writing library : XviD 73

Audio
ID : 1
Format : AC-3
Format/Info : Audio Coding 3
Mode extension : CM (complete main)
Format settings, Endianness : Big
Codec ID : 2000
Duration : 1h 29mn
Bit rate mode : Constant
Bit rate : 256 Kbps
Channel(s) : 2 channels
Channel positions : Front: L R
Sampling rate : 48.0 KHz
Bit depth : 16 bits
Compression mode : Lossy
Stream size : 164 MiB (22%)
Alignment : Split accross interleaves
Interleave, duration : 42 ms (1.00 video frame)
Interleave, preload duration : 500 ms






Пример субтитров
1
00:00:12,633 --> 00:00:17,571
Рука, кормящая смерть

2
00:03:03,900 --> 00:03:05,516
Очнись, Ваня,

3
00:03:05,533 --> 00:03:07,023
Очнись!

4
00:04:24,800 --> 00:04:28,771
Мне нужна ещё одна.
Мне нужна ещё одна.

5
00:04:28,700 --> 00:04:30,236
- Что ты делаешь?
- Ну давай!

6
00:04:31,433 --> 00:04:33,253
- Перестань!
- Дай прикоснуться к тебе.

7
00:04:38,500 --> 00:04:40,059
Не шевелись.

8
00:04:40,067 --> 00:04:41,592
Перестань!

9
00:04:41,567 --> 00:04:42,728
Нет!

10
00:04:53,533 --> 00:04:54,694
Ты кто такой?

11
00:04:55,433 --> 00:04:56,559
Что тебе нужно'?

12
00:05:04,400 --> 00:05:05,845
Помогите!

13
00:05:11,100 --> 00:05:12,704
Помогите!

14
00:06:12,833 --> 00:06:14,733
Забери ее, пусть она исчезнет.

15
00:06:19,233 --> 00:06:20,769
Хозяин!

16
00:06:22,033 --> 00:06:23,444
Найдётся пи у тебя комната'?

17
00:06:23,600 --> 00:06:26,035
Конечно, ГОСПОДИН,






Скриншоты











Раздача от группы




У вас нет необходимых прав для просмотра вложений в этом сообщении.

_________________


Вернуться к началу
 Профиль  
Ответить с цитатой  
  • Торрент
Автор: oartemka178 Хэш: ---
Добавлен: 2014-12-17 18:09 Приватный: Нет (DHT включён)
Статус:
---
Размер: 747.41 МБ (783 714 132 байт)
Изменил:
---
Скачали: 0 (Раздающих: 0%)
Причина:
---
Здоровье: 0%
Сидеров: 0 Личеров: 0
Скорость раздачи: 0 байт/сек Скорость скачивания: 0 байт/сек
Последний сидер: Нет Последний личер: Нет
Для скачивания торрента необходимо зарегистрироваться или войти на трекер.
Показать сообщения за:  Поле сортировки  
Начать новую тему Ответить на тему  [ 1 сообщение ] 

Часовой пояс: UTC + 3 часа


Кто сейчас на конференции

Сейчас этот форум просматривают: нет зарегистрированных пользователей и гости: 1


Вы не можете начинать темы
Вы не можете отвечать на сообщения
Вы не можете редактировать свои сообщения
Вы не можете удалять свои сообщения
Вы не можете добавлять вложения

Найти:
Перейти:  
cron
Переместиться наверх