Часовой пояс: UTC + 3 часа




Начать новую тему Ответить на тему  [ 1 сообщение ] 
Автор Сообщение
СообщениеДобавлено: 2014-12-17 18:13 
Не в сети
Администратор
Администратор
Аватара пользователя
Раздал: 51.58 ТБ
Скачал: 620.08 ГБ
Ратио: 85.182


Зарегистрирован: 2010-11-09 02:24
Сообщения: 44652
Откуда: Земля Санникова
#777
[font=Georgia]В компании волков
[color=brown]The Company of Wolves
[/color]



[center]
«Where fairy stories meet horror stories»



Страна: Великобритания
Жанр: ужасы, фэнтези

Год выпуска: 1984
Продолжительность: 01:35:17





Перевод: Профессиональный (многоголосый, закадровый)
Авторский (Гаврилов Андрей)

Cубтитры: Русские, английские[/font]
Оригинальная аудиодорожка: английский





Режиссер:
Нил Джордан / Neil Jordan
В ролях:
Анджела Лэнсбери (Granny), Дэвид Уорнер (Father), Грэм Кроуден (Old Priest), Брайан Гловер (Amorous Boy's Father), Кэтрин Погсон (Young Bride), Стивен Ри (Young Groom), Туссе Сильберг (Mother), Миша Бергезе (Huntsman), Сара Пэттерсон (Rosaleen), Джорджия Слоу (Alice), Сьюзан Порретт (Amorous Boy's Mother), Шэйн Джонстоун (Amorous Boy)





[center]
Описание:
После того, как волк убил сестру на глазах юной Розалин, она нашла приют в доме бабушки, затерявшемся посреди густого леса. От бабушки Розалин узнала страшные истории о невинных девушках, влюбляющихся в прекрасных незнакомцев со сросшимися бровями и горящими глазами, о людях, бесследно исчезающих в пору полнолуния, когда из леса доносится волчий вой...
Однажды Розалин возвращалась к бабушке по узкой лесной тропинке и повстречала молодого охотника. Он был очень красив, и она не заметила, что его брови срослись на переносице...






Качество видео: BDRip
Формат видео: AVI
Видео: 704x400 (1.76:1), 23.976 fps, XviD MPEG-4 ~2184 kbps avg, 0.32 bit/pixel
Аудио 1: 48 kHz, AC3 Dolby Digital, 3/2 (L,C,R,l,r) + LFE ch, ~448 kbps Russian (MVO)
Аудио 2: 48 kHz, AC3 Dolby Digital, 2/0 (L,R) ch, ~192 kbps Russian (AVO)
Аудио 3: 48 kHz, AC3 Dolby Digital, 3/2 (L,C,R,l,r) + LFE ch, ~448 kbps English

[/center]
[/center]

Скриншоты



Media Info
General
Complete name : F:\Рипы\V.kompanii.volkov.1984.BDRip\V.kompanii.volkov.1984.BDRip.avi
Format : AVI
Format/Info : Audio Video Interleave
Format profile : OpenDML
File size : 2.18 GiB
Duration : 1h 35mn
Overall bit rate : 3 278 Kbps
Writing application : VirtualDubModRus 1.5.10.2 (build 2542/release)
Writing library : VirtualDubMod build 2542/release

Video
ID : 0
Format : MPEG-4 Visual
Format profile : Advanced Simple@L5
Format settings, BVOP : 1
Format settings, QPel : No
Format settings, GMC : No warppoints
Format settings, Matrix : Custom
Codec ID : XVID
Codec ID/Hint : XviD
Duration : 1h 35mn
Bit rate : 2 167 Kbps
Width : 704 pixels
Height : 400 pixels
Display aspect ratio : 16:9
Frame rate : 23.976 fps
Color space : YUV
Chroma subsampling : 4:2:0
Bit depth : 8 bits
Scan type : Progressive
Compression mode : Lossy
Bits/(Pixel*Frame) : 0.321
Stream size : 1.44 GiB (66%)
Writing library : XviD 73

Audio #1
ID : 1
Format : AC-3
Format/Info : Audio Coding 3
Mode extension : CM (complete main)
Codec ID : 2000
Duration : 1h 35mn
Bit rate mode : Constant
Bit rate : 448 Kbps
Channel(s) : 6 channels
Channel positions : Front: L C R, Side: L R, LFE
Sampling rate : 48.0 KHz
Bit depth : 16 bits
Compression mode : Lossy
Stream size : 305 MiB (14%)
Alignment : Split accross interleaves
Interleave, duration : 42 ms (1.00 video frame)
Interleave, preload duration : 500 ms

Audio #2
ID : 2
Format : AC-3
Format/Info : Audio Coding 3
Mode extension : CM (complete main)
Codec ID : 2000
Duration : 1h 35mn
Bit rate mode : Constant
Bit rate : 192 Kbps
Channel(s) : 2 channels
Channel positions : Front: L R
Sampling rate : 48.0 KHz
Bit depth : 16 bits
Compression mode : Lossy
Stream size : 131 MiB (6%)
Alignment : Split accross interleaves
Interleave, duration : 42 ms (1.00 video frame)
Interleave, preload duration : 500 ms

Audio #3
ID : 3
Format : AC-3
Format/Info : Audio Coding 3
Mode extension : CM (complete main)
Codec ID : 2000
Duration : 1h 35mn
Bit rate mode : Constant
Bit rate : 448 Kbps
Channel(s) : 6 channels
Channel positions : Front: L C R, Side: L R, LFE
Sampling rate : 48.0 KHz
Bit depth : 16 bits
Compression mode : Lossy
Stream size : 305 MiB (14%)
Alignment : Split accross interleaves
Interleave, duration : 42 ms (1.00 video frame)
Interleave, preload duration : 500 ms


У вас нет необходимых прав для просмотра вложений в этом сообщении.

_________________


Вернуться к началу
 Профиль  
Ответить с цитатой  
  • Торрент
Автор: oartemka178 Хэш: ---
Добавлен: 2014-12-17 18:09 Приватный: Нет (DHT включён)
Статус:
---
Размер: 2.18 ГБ (2 343 195 733 байт)
Изменил:
---
Скачали: 0 (Раздающих: 0%)
Причина:
---
Здоровье: 0%
Сидеров: 0 Личеров: 0
Скорость раздачи: 0 байт/сек Скорость скачивания: 0 байт/сек
Последний сидер: Нет Последний личер: Нет
Для скачивания торрента необходимо зарегистрироваться или войти на трекер.
Показать сообщения за:  Поле сортировки  
Начать новую тему Ответить на тему  [ 1 сообщение ] 

Часовой пояс: UTC + 3 часа


Кто сейчас на конференции

Сейчас этот форум просматривают: нет зарегистрированных пользователей и гости: 1


Вы не можете начинать темы
Вы не можете отвечать на сообщения
Вы не можете редактировать свои сообщения
Вы не можете удалять свои сообщения
Вы не можете добавлять вложения

Найти:
Перейти:  
Переместиться наверх