Часовой пояс: UTC + 3 часа




Начать новую тему Ответить на тему  [ 1 сообщение ] 
Автор Сообщение
СообщениеДобавлено: 2014-12-17 18:13 
Не в сети
Администратор
Администратор
Аватара пользователя
Раздал: 51.58 ТБ
Скачал: 620.08 ГБ
Ратио: 85.182


Зарегистрирован: 2010-11-09 02:24
Сообщения: 44652
Откуда: Земля Санникова
Психоз 3 / Психо III / Psycho III

#777
Страна: США
Жанр: ужасы, триллер, драма
Год выпуска: 1986
Продолжительность: 01:32:49

Перевод: Одноголосый закадровый
Cубтитры: нет
Режиссер: Энтони Перкинс / Anthony Perkins

В ролях: Энтони Перкинс, Диана Скаруид, Джефф Фэйи, Роберта Максвелл, Хью Гиллин, Ли Гарлингтон, Роберт Алан Браун, Гари Байер, Джульет Камминс, Стив Гуевара, Донован Скотт

Описание:
Несчастного Нормана снова посещает его покойная матушка. А в это время в мотель как назло нагрянули постояльцы. Перкинс настолько свыкся с ролью маменькиного сынка Нормана Бэйтса, что решил снимать теперь сам. Опять науськиваемый "мамашей", он "мочит" молодежь, а в конце забивает лопатой и претендентку на место мамаши, оказавшуюся родственницей. Самое удивительное, что полиция никак не хочет каждый раз верить, что он на такое способен, а вечно подозревает других.

Сэмпл

Автор релиза: (T-1000)

Источник: BDRip 720p
Качество видео: HDRip
Формат видео: AVI

Видео: 688x368 (1.87:1), 23.976 fps, XviD build 50 ~918 kbps avg, 0.15 bit/pixel
Аудио: 48 kHz, AC3 Dolby Digital, 2/0 (L,R) ch, ~192 kbps

MediaInfo
Общее
Полное имя : C:\Users\к\Desktop\фильмы\Psycho 3.1986.XviD.HDRip.avi
Формат : AVI
Формат/Информация : Audio Video Interleave
Размер файла : 744 Мбайт
Продолжительность : 1 ч. 32 м.
Общий поток : 1120 Кбит/сек
Программа кодирования : VirtualDubMod 1.5.10.3 | http://www.virtualdub-fr.org || (build 2550/release)
Библиотека кодирования : VirtualDubMod build 2550/release

Видео
Идентификатор : 0
Формат : MPEG-4 Visual
Профиль формата : Advanced Simple@L5
Параметр BVOP формата : 2
Параметр QPel формата : Нет
Параметр GMC формата : Без точки перехода
Параметр матрицы формата : Default (MPEG)
Идентификатор кодека : XVID
Идентификатор кодека/Подсказка : XviD
Продолжительность : 1 ч. 32 м.
Битрейт : 919 Кбит/сек
Ширина : 688 пикселей
Высота : 368 пикселей
Соотношение сторон : 1,85:1
Частота кадров : 23,976 кадра/сек
Цветовое пространство : YUV
Субдискретизация насыщенности : 4:2:0
Битовая глубина : 8 бит
Тип развёртки : Прогрессивная
Метод сжатия : С потерями
Бит/(Пиксели*Кадры) : 0.151
Размер потока : 610 Мбайт (82%)
Библиотека кодирования : XviD 1.2.1 (UTC 2008-12-04)

Аудио
Идентификатор : 1
Формат : AC-3
Формат/Информация : Audio Coding 3
Расширение режима : CM (complete main)
Параметр Endianness формата : Big
Идентификатор кодека : 2000
Продолжительность : 1 ч. 32 м.
Вид битрейта : Постоянный
Битрейт : 192 Кбит/сек
Каналы : 2 канала
Расположение каналов : Front: L R
Частота : 48,0 КГц
Битовая глубина : 16 бит
Метод сжатия : С потерями
Размер потока : 127 Мбайт (17%)
Выравнивание : Разделение по промежуткам
Продолжительность промежутка : 42 мс. (1,00 видеокадр)
Время предзагрузки промежутка : 500 мс.


Скриншоты



Сравнение скриншотов
http://rustrek.ru/viewtopic.php?t=3476662 http://screenshotcomparison.com/comparison/59604


У вас нет необходимых прав для просмотра вложений в этом сообщении.

_________________


Вернуться к началу
 Профиль  
Ответить с цитатой  
  • Торрент
Автор: oartemka178 Хэш: ---
Добавлен: 2014-12-17 18:09 Приватный: Нет (DHT включён)
Статус:
---
Размер: 743.79 МБ (779 919 360 байт)
Изменил:
---
Скачали: 0 (Раздающих: 0%)
Причина:
---
Здоровье: 0%
Сидеров: 0 Личеров: 0
Скорость раздачи: 0 байт/сек Скорость скачивания: 0 байт/сек
Последний сидер: Нет Последний личер: Нет
Для скачивания торрента необходимо зарегистрироваться или войти на трекер.
Показать сообщения за:  Поле сортировки  
Начать новую тему Ответить на тему  [ 1 сообщение ] 

Часовой пояс: UTC + 3 часа


Кто сейчас на конференции

Сейчас этот форум просматривают: нет зарегистрированных пользователей и гости: 1


Вы не можете начинать темы
Вы не можете отвечать на сообщения
Вы не можете редактировать свои сообщения
Вы не можете удалять свои сообщения
Вы не можете добавлять вложения

Найти:
Перейти:  
Переместиться наверх