Часовой пояс: UTC + 3 часа




Начать новую тему Ответить на тему  [ 1 сообщение ] 
Автор Сообщение
СообщениеДобавлено: 2015-03-05 16:37 
Не в сети
Администратор
Администратор
Аватара пользователя
Раздал: 1.21 ТБ
Скачал: 0 байт
Ратио: Seed.


Зарегистрирован: 2014-03-16 00:45
Сообщения: 2162
Писюн / Приключения члена Вилли / Wicked Willie


#777

Информация о фильме
Название: Писюн / Приключения члена Вилли
Оригинальное название: Wicked Willie
Год выхода: 1990
Страна: Великобритания
Студия: Best of British Films and Television Production , SimSity Productions
Продолжительность: 00:49:20
Перевод: Профессиональный (многоголосый закадровый)
Жанр: мультфильм, комедия, эротика

Режиссер: Боб Годфри / Bob Godfrey

В ролях: Райан Шугер, Майкл Саймонс...

О фильме: «Одна голова хорошо, а две лучше»
Ироничный и приправленный изрядной долей английского юмора анимационный мини-сериал о приключениях славного малого по имени Писюн.
У Писюна всегда есть свое мнение и взгляд на вещи, далеко не всегда совпадающее с желаниями и возможностями хозяина, к коему он намертво прикреплен. Но он изворотлив и хитер, как змий, и найдет выход из любой ситуации и путь к душе всякой женщины…





Файл
Кодек: MPEG-4 AVC (MKV)
Качество: DVDRip-AVC
Видео: AVC, 1024x768, 2000 Kbps
Звук: Русский: AC3, 6 ch, 448 Kbps / Английский: AC3, 2 ch, 192 Kbps
Субтитры: нет





General
Unique ID : 186201768863687043905543234400469587428 (0x8C1527FF0871ECC2B33410656A2715E4)
Complete name : G:ДИСК 2�4.МУЛЬТФИЛЬМЫПисюн Приключения члена Вилли Wicked Willie (1990)Wicked Willie (1990) DVDRip-AVC.mkv
Format : Matroska
Format version : Version 4 / Version 2
File size : 932 MiB
Duration : 49mn 20s
Overall bit rate : 2 642 Kbps
Encoded date : UTC 2015-03-05 04:40:08
Writing application : mkvmerge v7.5.0 ('Glass Culture') 64bit built on Jan 4 2015 16:48:44
Writing library : libebml v1.3.1 + libmatroska v1.4.2
_STATISTICS_WRITING_APP : mkvmerge v7.5.0 ('Glass Culture') 64bit built on Jan 4 2015 16:48:44
_STATISTICS_WRITING_DATE_UTC : 2015-03-05 04:40:08
_STATISTICS_TAGS : BPS DURATION NUMBER_OF_FRAMES NUMBER_OF_BYTES
DURATION : 00:49:20.207000000
NUMBER_OF_FRAMES : 70974
NUMBER_OF_BYTES : 739991981

Video
ID : 1
Format : AVC
Format/Info : Advanced Video Codec
Format profile : High@L4.1
Format settings, CABAC : Yes
Format settings, ReFrames : 9 frames
Codec ID : V_MPEG4/ISO/AVC
Duration : 49mn 20s
Bit rate : 2 000 Kbps
Width : 1 024 pixels
Height : 768 pixels
Display aspect ratio : 4:3
Frame rate mode : Constant
Frame rate : 23.976 fps
Color space : YUV
Chroma subsampling : 4:2:0
Bit depth : 8 bits
Scan type : Progressive
Bits/(Pixel*Frame) : 0.106
Stream size : 688 MiB (74%)
Writing library : x264 core 125 r2200 999b753
Encoding settings : cabac=1 / ref=9 / deblock=1:-3:-3 / analyse=0x3:0x113 / me=umh / subme=9 / psy=1 / psy_rd=1.00:0.00 / mixed_ref=1 / me_range=16 / chroma_me=1 / trellis=2 / 8x8dct=1 / cqm=0 / deadzone=21,11 / fast_pskip=0 / chroma_qp_offset=-2 / threads=6 / lookahead_threads=1 / sliced_threads=0 / nr=0 / decimate=1 / interlaced=0 / bluray_compat=0 / constrained_intra=0 / bframes=9 / b_pyramid=2 / b_adapt=2 / b_bias=0 / direct=3 / weightb=1 / open_gop=0 / weightp=2 / keyint=240 / keyint_min=23 / scenecut=40 / intra_refresh=0 / rc_lookahead=40 / rc=2pass / mbtree=1 / bitrate=2000 / ratetol=1.0 / qcomp=0.60 / qpmin=0 / qpmax=69 / qpstep=4 / cplxblur=20.0 / qblur=0.5 / ip_ratio=1.40 / aq=1:1.00
Language : English
Default : Yes
Forced : No

Audio #1
ID : 2
Format : AC-3
Format/Info : Audio Coding 3
Mode extension : CM (complete main)
Format settings, Endianness : Big
Codec ID : A_AC3
Duration : 49mn 20s
Bit rate mode : Constant
Bit rate : 448 Kbps
Channel(s) : 6 channels
Channel positions : Front: L C R, Side: L R, LFE
Sampling rate : 48.0 KHz
Bit depth : 16 bits
Compression mode : Lossy
Stream size : 158 MiB (17%)
Language : Russian
Default : Yes
Forced : No

Audio #2
ID : 3
Format : AC-3
Format/Info : Audio Coding 3
Mode extension : CM (complete main)
Format settings, Endianness : Big
Codec ID : A_AC3
Duration : 49mn 20s
Bit rate mode : Constant
Bit rate : 192 Kbps
Channel(s) : 2 channels
Channel positions : Front: L R
Sampling rate : 48.0 KHz
Bit depth : 16 bits
Compression mode : Lossy
Stream size : 67.8 MiB (7%)
Language : English
Default : No
Forced : No


У вас нет необходимых прав для просмотра вложений в этом сообщении.


Вернуться к началу
 Профиль  
Ответить с цитатой  
  • Торрент
Автор: Consultants Хэш: ---
Добавлен: 2015-03-05 16:38 Приватный: Нет (DHT включён)
Статус:
---
Размер: 932.25 МБ (977 536 324 байт)
Изменил:
---
Скачали: 11 (Раздающих: 0%)
Причина:
---
Здоровье: 0%
Сидеров: 0 Личеров: 0
Скорость раздачи: 0 байт/сек Скорость скачивания: 0 байт/сек
Последний сидер: Нет Последний личер: Нет
Для скачивания торрента необходимо зарегистрироваться или войти на трекер.
Показать сообщения за:  Поле сортировки  
Начать новую тему Ответить на тему  [ 1 сообщение ] 

Часовой пояс: UTC + 3 часа


Кто сейчас на конференции

Сейчас этот форум просматривают: нет зарегистрированных пользователей и гости: 1


Вы не можете начинать темы
Вы не можете отвечать на сообщения
Вы не можете редактировать свои сообщения
Вы не можете удалять свои сообщения
Вы не можете добавлять вложения

Найти:
Перейти:  
Переместиться наверх