Часовой пояс: UTC + 3 часа




Начать новую тему Ответить на тему  [ 1 сообщение ] 
Автор Сообщение
СообщениеДобавлено: 2014-12-03 15:44 
В сети
Администратор
Администратор
Аватара пользователя
Раздал: 51.58 ТБ
Скачал: 620.08 ГБ
Ратио: 85.182


Зарегистрирован: 2010-11-09 02:24
Сообщения: 44625
Откуда: Земля Санникова
#777
Золотой век / L'вge d'or / L'Age d'Or
Страна: Франция
Студия: Vicomte de Noailles
Жанр: сюрреализм, драма, хулиганство
Год выпуска: 1930
Продолжительность: 01:02:37
Интертитры: французские
Перевод: одноголосый закадровый (liosaa)
Cубтитры: русские (liosaa), английские
Оригинальная аудиодорожка: французский
Режиссер: Луис Бунюэль / Luis Buсuel
Сценарий: Луис Бунюэль / Luis Buсuel, Сальвадор Дали / Salvador Dalн
В ролях: Гастон Модо (Gaston Modot), Лиа Лис (Lya Lys), Каридад де Лабердеск (Caridad de Laberdesque), Макс Эрнст (Max Ernst), Хосе Ллоренс Артигас (Josep Llorens Artigas), Лайонел Салем (Lionel Salem), Жермен Нойзе (Germaine Noizet), Дюшанж (Duchange), Бонавентура Ибаньес (Bonaventura Ibбсez)
Описание:
....Скорпион во гневе не пощадит ни крысу, ни соседа....
....Если ты солдат-доходяга, то до поля боя дойдёшь едва ли....
....А уж коли доверили миссию Посла Доброй Воли -- дай пенделя слепым и собачке....
Земные катаклизмы меркнут пред мощью электрической тяги двух влюблённых сердец....
Во имя священной любви, доводящей до дрожи, до сосания пальцев подруги, можно пережить многое, но только не измену со стариком-дирижёром, охваченным внезапной мигренью от игры своего оркестрика и оттого таким бесконечно жалко-желанным.... Тогда горячая рука ревнивца -- от природы бУЙного малого -- обрушит на мир град из священнослужителей, жирафов и гусиного пуха (и пера)....

imdb
Тип релиза: BDRip 720p (EbP / thanks xamster)
Контейнер: MKV
Видео: x264@L4.1; 852х720 (1.183); 23.976 fps; 9531 kbps
Аудио 1: AC3; 128 kbps, 1 ch, 48 khz, 16 bit / French original
Аудио 2: AC3; 128 kbps, 1 ch, 48 khz, 16 bit / Russian VO
Аудио 3: AC3; 128 kbps, 1 ch, 48 khz, 16 bit / Commentary by Robert Short (in english)
Субтитры 1: Russian; SRT
Субтитры 2: English; SRT
Субтитры 3: English commentary by Robert Short; SRT
Навигация по главам: есть
MediaInfo
General
Unique ID : 193859197417540597577179027479035087751 (0x91D7EC5F5D0F8D5F88EDB53E646F8B87)
Complete name : L'Age.d'Or.1930.BDRip.720p.Fre.Rus.Eng.Comm.Sub-EbP.mkv
Format : Matroska
Format version : Version 2
File size : 4.34 GiB
Duration : 1h 2mn
Overall bit rate : 9 917 Kbps
Encoded date : UTC 2011-10-24 20:53:53
Writing application : mkvmerge v5.0.1 ('Es ist Sommer') built on Oct 9 2011 11:55:43
Writing library : libebml v1.2.2 + libmatroska v1.3.0
Video
ID : 1
Format : AVC
Format/Info : Advanced Video Codec
Format profile : High@L4.1
Format settings, CABAC : Yes
Format settings, ReFrames : 10 frames
Format settings, GOP : M=1, N=33
Codec ID : V_MPEG4/ISO/AVC
Duration : 1h 2mn
Bit rate : 9 336 Kbps
Width : 852 pixels
Height : 720 pixels
Display aspect ratio : 1.183
Frame rate : 23.976 fps
Color space : YUV
Chroma subsampling : 4:2:0
Bit depth : 8 bits
Scan type : Progressive
Bits/(Pixel*Frame) : 0.635
Stream size : 4.08 GiB (94%)
Title : L'Age d'or (1930) [Ripped by EbP]
Writing library : x264 core 115 r2008 4c552d8
Encoding settings : cabac=1 / ref=10 / deblock=1:-3:-3 / analyse=0x3:0x113 / me=tesa / subme=10 / psy=1 / psy_rd=1.10:0.00 / mixed_ref=1 / me_range=16 / chroma_me=1 / trellis=2 / 8x8dct=1 / cqm=0 / deadzone=21,11 / fast_pskip=0 / chroma_qp_offset=-2 / threads=12 / sliced_threads=0 / nr=0 / decimate=0 / interlaced=0 / bluray_compat=0 / constrained_intra=0 / bframes=9 / b_pyramid=2 / b_adapt=2 / b_bias=0 / direct=3 / weightb=1 / open_gop=0 / weightp=2 / keyint=250 / keyint_min=23 / scenecut=40 / intra_refresh=0 / rc=crf / mbtree=0 / crf=19.9 / qcomp=0.80 / qpmin=0 / qpmax=69 / qpstep=4 / ip_ratio=1.40 / pb_ratio=1.30 / aq=1:0.50
Language : French
Audio #1
ID : 2
Format : AC-3
Format/Info : Audio Coding 3
Mode extension : CM (complete main)
Codec ID : A_AC3
Duration : 1h 2mn
Bit rate mode : Constant
Bit rate : 128 Kbps
Channel(s) : 1 channel
Channel positions : Front: C
Sampling rate : 48.0 KHz
Bit depth : 16 bits
Compression mode : Lossy
Stream size : 57.3 MiB (1%)
Title : Original [AC3 1.0 128 kbps]
Language : French
Audio #2
ID : 3
Format : AC-3
Format/Info : Audio Coding 3
Mode extension : CM (complete main)
Codec ID : A_AC3
Duration : 1h 2mn
Bit rate mode : Constant
Bit rate : 128 Kbps
Channel(s) : 1 channel
Channel positions : Front: C
Sampling rate : 48.0 KHz
Bit depth : 16 bits
Compression mode : Lossy
Stream size : 57.3 MiB (1%)
Title : VO (liosaa) [AC3 1.0 128 kbps]
Language : Russian
Audio #3
ID : 4
Format : AC-3
Format/Info : Audio Coding 3
Mode extension : CM (complete main)
Codec ID : A_AC3
Duration : 1h 2mn
Bit rate mode : Constant
Bit rate : 128 Kbps
Channel(s) : 1 channel
Channel positions : Front: C
Sampling rate : 48.0 KHz
Bit depth : 16 bits
Compression mode : Lossy
Stream size : 57.3 MiB (1%)
Title : Commentary by Robert Short [AC3 1.0 128 kbps]
Language : English
Text #1
ID : 5
Format : UTF-8
Codec ID : S_TEXT/UTF8
Codec ID/Info : UTF-8 Plain Text
Title : Russian (liosaa)
Language : Russian
Text #2
ID : 6
Format : UTF-8
Codec ID : S_TEXT/UTF8
Codec ID/Info : UTF-8 Plain Text
Title : English
Language : English
Text #3
ID : 7
Format : UTF-8
Codec ID : S_TEXT/UTF8
Codec ID/Info : UTF-8 Plain Text
Title : Commentary by Robert Short
Language : English
Menu
00:00:00.000 : en:00:00:00.000
00:05:28.578 : en:00:05:28.578
00:10:40.974 : en:00:10:40.974
00:15:03.778 : en:00:15:03.778
00:20:21.137 : en:00:20:21.137
00:26:03.145 : en:00:26:03.145
00:31:01.443 : en:00:31:01.443
00:35:16.948 : en:00:35:16.948
00:40:06.446 : en:00:40:06.446
00:45:10.708 : en:00:45:10.708
00:50:06.754 : en:00:50:06.754
00:54:59.296 : en:00:54:59.296

Скриншоты: rip & source






У вас нет необходимых прав для просмотра вложений в этом сообщении.

_________________


Вернуться к началу
 Профиль  
Ответить с цитатой  
  • Торрент
Автор: oartemka178 Хэш: ---
Добавлен: 2014-12-03 15:44 Приватный: Нет (DHT включён)
Статус:
---
Размер: 4.34 ГБ (4 658 021 836 байт)
Изменил:
---
Скачали: 0 (Раздающих: 0%)
Причина:
---
Здоровье: 0%
Сидеров: 0 Личеров: 0
Скорость раздачи: 0 байт/сек Скорость скачивания: 0 байт/сек
Последний сидер: Нет Последний личер: Нет
Для скачивания торрента необходимо зарегистрироваться или войти на трекер.
Показать сообщения за:  Поле сортировки  
Начать новую тему Ответить на тему  [ 1 сообщение ] 

Часовой пояс: UTC + 3 часа


Кто сейчас на конференции

Сейчас этот форум просматривают: нет зарегистрированных пользователей и гости: 1


Вы не можете начинать темы
Вы не можете отвечать на сообщения
Вы не можете редактировать свои сообщения
Вы не можете удалять свои сообщения
Вы не можете добавлять вложения

Найти:
Перейти:  
Переместиться наверх