Часовой пояс: UTC + 3 часа




Начать новую тему Ответить на тему  [ 1 сообщение ] 
Автор Сообщение
СообщениеДобавлено: 2014-12-01 23:35 
Не в сети
Администратор
Администратор
Аватара пользователя
Раздал: 1.21 ТБ
Скачал: 0 байт
Ратио: Seed.


Зарегистрирован: 2014-03-16 00:45
Сообщения: 2162
Дом-монстр / Monster House
#777


Год выпуска: 2006
Выпущено: США / Sony / Columbia
Жанр: фэнтези, комедия, семейный, мультфильм, детектив
Продолжительность: 01:30:38
Перевод: Дублированный + Английский (оригинал) + Комментарии (оригинал)
Cубтитры: есть (Украинские, Английские)


Режиссер: Гил Кинан / Gil Kenan
Озвучание: Райан Ньюман, Стив Бушеми, Митчел Муссо, Кэтрин О’Хара, Фред Уиллард, Сэм Лернер, Вуди Шульц, Йен МакКоннел, Мэгги Джилленхол, Джейсон Ли, Кевин Джеймс, Кэтлин Тёрнер


Сюжет: Хорошо быть мальчишкой. Каждый день, как вся жизнь! Столько всего вокруг: девчонки, мороженое, драки, учебники, футбол. Насыщенный день, короче, получается. А вот если ты однажды обнаружил, что дом, который стоит по соседству с домом твоей семьи — вовсе не дом… А попросту говоря — монстр. Чудовище, в общем. Такие дела.
Ну вот, история эта про то, как три приятеля — ДиДжей, Чёдер и Дженни — обнаружили, что дом, находящийся неподалеку, самый настоящий монстр. Только никто им не верил. Мало ли, чего навыдумывают дети… Только зря они так. Ребята их предупреждали…
IMDB // КиноПоиск // Сэмпл // by sergey_n


Качество видео: BDRip 720p
Формат: MKV
Видео кодек: H.264
Аудио кодек: AC3
Видео: MPEG4 (H264), 1280 x 534, 23.976 fps, ~6270 Кбит/с
Аудио #1: AC3, 448 Кбит/с, 48 kHz (6 ch) Russian R5
Аудио #2: AC3, 640 Кбит/с, 48 kHz (6 ch) English
Аудио #3: AC3, 192 Кбит/с, 48 kHz (2 ch) English / Commentary


Скриншоты


MediaInfo
General
Complete name : D:\VIDEO\Monster.House.2006.720p.BluRay.Rus.2xEng.HDCLUB.mkv
Format : Matroska
File size : 4.78 GiB
Duration : 1h 30mn
Overall bit rate : 7 552 Kbps
Movie name : Monster House (2006) - Release for HDCLUB
Encoded date : UTC 2010-01-26 23:40:09
Writing application : mkvmerge v3.0.0 ('Hang up your Hang-Ups') built on Dec 12 2009 15:20:35
Writing library : libebml v0.7.9 + libmatroska v0.8.1
Video
ID : 1
Format : AVC
Format/Info : Advanced Video Codec
Format profile : High@L4.1
Format settings, CABAC : Yes
Format settings, ReFrames : 6 frames
Muxing mode : Container profile=Unknown@4.1
Codec ID : V_MPEG4/ISO/AVC
Duration : 1h 30mn
Bit rate : 6 270 Kbps
Width : 1 280 pixels
Height : 534 pixels
Display aspect ratio : 2.35:1
Frame rate : 23.976 fps
Color space : YUV
Chroma subsampling : 4:2:0
Bit depth : 8 bits
Scan type : Progressive
Bits/(Pixel*Frame) : 0.383
Stream size : 3.88 GiB (81%)
Title : Release for HDCLUB
Writing library : x264 core 84 r1400M 20fa784
Encoding settings : cabac=1 / ref=6 / deblock=1:-3:-3 / analyse=0x3:0x133 / me=esa / subme=10 / psy=1 / psy_rd=1.1:0.0 / mixed_ref=1 / me_range=16 / chroma_me=1 / trellis=2 / 8x8dct=1 / cqm=0 / deadzone=21,11 / fast_pskip=0 / chroma_qp_offset=-2 / threads=12 / sliced_threads=0 / nr=0 / decimate=0 / mbaff=0 / constrained_intra=0 / bframes=7 / b_pyramid=0 / b_adapt=2 / b_bias=0 / direct=3 / wpredb=1 / wpredp=2 / keyint=250 / keyint_min=25 / scenecut=40 / intra_refresh=0 / rc_lookahead=0 / rc=2pass / mbtree=0 / bitrate=6270 / ratetol=2.0 / qcomp=0.60 / qpmin=10 / qpmax=51 / qpstep=4 / cplxblur=20.0 / qblur=0.5 / vbv_maxrate=50000 / vbv_bufsize=50000 / ip_ratio=1.10 / pb_ratio=1.10 / aq=1:1.00 / pulldown=0 / nal_hrd=0
Language : English
Audio #1
ID : 2
Format : AC-3
Format/Info : Audio Coding 3
Mode extension : CM (complete main)
Codec ID : A_AC3
Duration : 1h 30mn
Bit rate mode : Constant
Bit rate : 448 Kbps
Channel(s) : 6 channels
Channel positions : Front: L C R, Side: L R, LFE
Sampling rate : 48.0 KHz
Bit depth : 16 bits
Stream size : 290 MiB (6%)
Title : AC3 5.1 @ 448 kbps - Дублированный
Language : Russian
Audio #2
ID : 3
Format : AC-3
Format/Info : Audio Coding 3
Mode extension : CM (complete main)
Codec ID : A_AC3
Duration : 1h 30mn
Bit rate mode : Constant
Bit rate : 640 Kbps
Channel(s) : 6 channels
Channel positions : Front: L C R, Side: L R, LFE
Sampling rate : 48.0 KHz
Bit depth : 16 bits
Stream size : 415 MiB (8%)
Title : AC3 5.1 @ 640 kbps
Language : English
Audio #3
ID : 4
Format : AC-3
Format/Info : Audio Coding 3
Format profile : Dolby Digital
Mode extension : CM (complete main)
Codec ID : A_AC3
Duration : 1h 30mn
Bit rate mode : Constant
Bit rate : 192 Kbps
Channel(s) : 2 channels
Channel positions : Front: L R
Sampling rate : 48.0 KHz
Bit depth : 16 bits
Stream size : 124 MiB (3%)
Title : AC3 2.0 @ 192 kbps - Комментарии
Language : English
Text #1
ID : 5
Format : UTF-8
Codec ID : S_TEXT/UTF8
Codec ID/Info : UTF-8 Plain Text
Language : Ukrainian
Text #2
ID : 6
Format : UTF-8
Codec ID : S_TEXT/UTF8
Codec ID/Info : UTF-8 Plain Text
Language : English



У вас нет необходимых прав для просмотра вложений в этом сообщении.


Вернуться к началу
 Профиль  
Ответить с цитатой  
  • Торрент
Автор: Consultants Хэш: ---
Добавлен: 2018-09-25 12:47 Приватный: Нет (DHT включён)
Статус:
---
Размер: 4.78 ГБ (5 133 962 101 байт)
Изменил:
---
Скачали: 0 (Раздающих: 0%)
Причина:
---
Здоровье: 100%
Сидеров: 7 Личеров: 2
Скорость раздачи: 0 байт/сек Скорость скачивания: 0 байт/сек
Последний сидер: 1 день 23 часа 45 минут 59 секунд назад Последний личер: 1 день 23 часа 45 минут 59 секунд назад
Для скачивания торрента необходимо зарегистрироваться или войти на трекер.
Показать сообщения за:  Поле сортировки  
Начать новую тему Ответить на тему  [ 1 сообщение ] 

Часовой пояс: UTC + 3 часа


Кто сейчас на конференции

Сейчас этот форум просматривают: нет зарегистрированных пользователей и гости: 1


Вы не можете начинать темы
Вы не можете отвечать на сообщения
Вы не можете редактировать свои сообщения
Вы не можете удалять свои сообщения
Вы не можете добавлять вложения

Найти:
Перейти:  
Переместиться наверх
cron