Часовой пояс: UTC + 3 часа




Начать новую тему Ответить на тему  [ 1 сообщение ] 
Автор Сообщение
СообщениеДобавлено: 2014-11-29 15:14 
Не в сети
Администратор
Администратор
Аватара пользователя
Раздал: 1.21 ТБ
Скачал: 0 байт
Ратио: Seed.


Зарегистрирован: 2014-03-16 00:45
Сообщения: 2162
Планета обезьян: Антология / Planet of the Apes: Antology



На 1973-2014 версии применен новый фильтр с небольшим подавлением площадных артефактов.Сохранена та же плавность что и в предыдущих моих релизах , но при этом убраны практически все искажения в ярких сценах.
P.S Так и не нашел русские субтитры на фильмы 1970-1973 ни в PGS , ни в SRT формате.[b]
[/b]



Название: Планета обезьян
Оригинальное название: Planet of the Apes
Год выпуска: 1968
Страна: США
Жанр: фантастика, детектив, приключения
Продолжительность: 01:52:16
Перевод: Профессиональный многоголосый
Субтитры: русские (Полные), английские (Полные)

Режиссер: Франклин Дж. Шаффнер / Franklin J. Schaffner

В ролях: Чарлтон Хестон (George Taylor), Родди МакДауэлл (Cornelius), Ким Хантер (Zira), Морис Эванс (Dr. Zaius), Джеймс Уитмор (President of the Assembly), Джеймс Дэйли (Honorious), Линда Харрисон (Nova), Роберт Ганнер (Landon), Лу Вагнер (Lucius), Вудроу Парфри (Maximus), Джефф Бертон (Dodge), Бак Карталян (Julius)


Описание:
В 3978 году космический корабль землян терпит крушение на далекой планете. Выжившие в катастрофе астронавты удивляются, как она похожа на их дом. Вскоре они узнают, что планета населена разумными обезьянами и деградировавшими до животного состояния людьми. Обезьяны захватывают астронавтов в плен, но после продолжительных пыток один из них совершает побег вместе с симпатичной девушкой-шимпанзе, которая открывает ему страшные тайны.


Рейтинг

imdb.com: 8.00 (121 130)
MPAA: G - Нет возрастных ограничений


Автор рипа:Tiberiumsun69



Качество: BDRip 1080p / 60 FPS
Формат: MKV
Видео кодек: AVC
Аудио кодек:AC3
Видео: AVC, 1920x816 (2.35:1), 14000 kbps, 59,940 fps, 0,149 bpp
Аудио №1: русский / AC3 / 5.1 / 48 kHz / 640 kbps / 16 bit |Дубляж|
Аудио №2: русский / AC3 / 5.1 / 48 kHz / 384 kbps / 16 bit |Многоголосый, закадровый Омикрон|
Аудио №3: английский / AC3 / 5.1 / 48 kHz / 640 kbps / 16 bit
Навигация по главам: есть



MI
General
Unique ID : 234777354179355667602610397223634141343 (0xB0A079424B0A8D9DB19B82101DA1009F)
Complete name : A:1080p 60fpsПланета обезьян 1080p 60fpsПланета обезьян 1 (1968).mkv
Format : Matroska
Format version : Version 4 / Version 2
File size : 12.3 GiB
Duration : 1h 52mn
Overall bit rate : 15.7 Mbps
Movie name : R.G HD-Films by Tiberiumsun69 60fps
Encoded date : UTC 2014-11-29 05:59:22
Writing application : mkvmerge v7.3.0 ('Nouages') 64bit built on Oct 22 2014 18:53:34
Writing library : libebml v1.3.0 + libmatroska v1.4.1
Attachment : Yes

Video
ID : 1
Format : AVC
Format/Info : Advanced Video Codec
Format profile : High@L4.1
Format settings, CABAC : Yes
Format settings, ReFrames : 4 frames
Codec ID : V_MPEG4/ISO/AVC
Duration : 1h 52mn
Bit rate : 14.0 Mbps
Width : 1 920 pixels
Height : 816 pixels
Display aspect ratio : 2.35:1
Frame rate : 59.940 fps
Color space : YUV
Chroma subsampling : 4:2:0
Bit depth : 8 bits
Scan type : Progressive
Bits/(Pixel*Frame) : 0.149
Stream size : 10.7 GiB (87%)
Title : R.G HD-Films by Tiberiumsun69 60fps
Writing library : x264 core 130 r2273 b3065e6
Encoding settings : cabac=1 / ref=4 / deblock=1:-1:-1 / analyse=0x3:0 / me=umh / subme=10 / psy=1 / psy_rd=1.00:0.00 / mixed_ref=1 / me_range=32 / chroma_me=0 / trellis=2 / 8x8dct=1 / cqm=0 / deadzone=21,11 / fast_pskip=0 / chroma_qp_offset=-2 / threads=12 / lookahead_threads=1 / sliced_threads=0 / nr=0 / decimate=0 / interlaced=0 / bluray_compat=0 / constrained_intra=0 / bframes=5 / b_pyramid=2 / b_adapt=2 / b_bias=0 / direct=3 / weightb=1 / open_gop=0 / weightp=2 / keyint=250 / keyint_min=59 / scenecut=40 / intra_refresh=0 / rc_lookahead=60 / rc=2pass / mbtree=1 / bitrate=14000 / ratetol=1.0 / qcomp=0.80 / qpmin=0 / qpmax=69 / qpstep=4 / cplxblur=20.0 / qblur=0.5 / ip_ratio=1.40 / aq=1:0.80
Language : English
Default : Yes
Forced : No

Audio #1
ID : 2
Format : AC-3
Format/Info : Audio Coding 3
Mode extension : CM (complete main)
Codec ID : A_AC3
Duration : 1h 52mn
Bit rate mode : Constant
Bit rate : 640 Kbps
Channel(s) : 6 channels
Channel positions : Front: L C R, Side: L R, LFE
Sampling rate : 48.0 KHz
Bit depth : 16 bits
Compression mode : Lossy
Stream size : 514 MiB (4%)
Title : Дубляж
Language : Russian
Default : Yes
Forced : No

Audio #2
ID : 3
Format : AC-3
Format/Info : Audio Coding 3
Mode extension : CM (complete main)
Codec ID : A_AC3
Duration : 1h 52mn
Bit rate mode : Constant
Bit rate : 384 Kbps
Channel(s) : 6 channels
Channel positions : Front: L C R, Side: L R, LFE
Sampling rate : 48.0 KHz
Bit depth : 16 bits
Compression mode : Lossy
Stream size : 308 MiB (2%)
Title : Многоголосый, закадровый Омикрон
Language : Russian
Default : No
Forced : No

Audio #3
ID : 4
Format : AC-3
Format/Info : Audio Coding 3
Mode extension : CM (complete main)
Codec ID : A_AC3
Duration : 1h 52mn
Bit rate mode : Constant
Bit rate : 640 Kbps
Channel(s) : 6 channels
Channel positions : Front: L C R, Side: L R, LFE
Sampling rate : 48.0 KHz
Bit depth : 16 bits
Compression mode : Lossy
Stream size : 514 MiB (4%)
Title : Оригинал
Language : English
Default : No
Forced : No

Text #1
ID : 5
Format : UTF-8
Codec ID : S_TEXT/UTF8
Codec ID/Info : UTF-8 Plain Text
Title : Полные
Language : Russian
Default : No
Forced : No

Text #2
ID : 6
Format : UTF-8
Codec ID : S_TEXT/UTF8
Codec ID/Info : UTF-8 Plain Text
Title : Полные
Language : English
Default : No
Forced : No

Menu
00:00:00.000 : en:00:00:00.000
00:03:39.998 : en:00:03:39.998
00:05:37.032 : en:00:05:37.032
00:11:49.487 : en:00:11:49.487
00:19:14.515 : en:00:19:14.515
00:21:23.728 : en:00:21:23.728
00:24:56.607 : en:00:24:56.607
00:28:05.379 : en:00:28:05.379
00:31:17.112 : en:00:31:17.112
00:36:27.506 : en:00:36:27.506
00:38:22.412 : en:00:38:22.412
00:43:10.450 : en:00:43:10.450
00:46:31.192 : en:00:46:31.192
00:48:21.385 : en:00:48:21.385
00:53:59.598 : en:00:53:59.598
01:00:28.612 : en:01:00:28.612
01:03:53.358 : en:01:03:53.358
01:11:11.546 : en:01:11:11.546
01:13:12.542 : en:01:13:12.542
01:16:50.718 : en:01:16:50.718
01:21:08.392 : en:01:21:08.392
01:27:17.344 : en:01:27:17.344
01:30:05.220 : en:01:30:05.220
01:34:21.027 : en:01:34:21.027
01:38:52.622 : en:01:38:52.622
01:43:57.427 : en:01:43:57.427
01:49:01.856 : en:01:49:01.856
01:51:30.671 : en:01:51:30.671




Название: Под планетой обезьян
Оригинальное название: Beneath the Planet of the Apes
Год выпуска: 1970
Страна: США
Жанр: фантастика, боевик, приключения
Продолжительность: 01:34:55
Перевод: Профессиональный многоголосый
Субтитры: английские (Полные)

Режиссер: Тед Пост / Ted Post

В ролях: Джеймс Франсискус (Brent), Ким Хантер (Zira), Морис Эванс (Dr. Zaius), Линда Харрисон (Nova), Пол Ричардс (Mendez), Виктор Буоно (Fat Man), Джеймс Грегори (Ursus), Джефф Кори (Caspay), Натали Транди (Albina), Томас Гомес (Minister), Дэвид Уотсон (Cornelius), Дон Педро Колли (Ongaro)


Описание:
Это вторая серия из пяти, рассказывающих о жизни на Земле в конце 40-го века от Рождества Христова. Когда после катастрофы звездолета оставшиеся в живых астронавты попали в плен к жутким человекоподобным обезьянам, все думали, что это конец.
Много приключений было у людей, но, в конце концов, самый лучший и удачливый из них - Брент, вынужден отправиться на поиски своих соплеменников. Он знает, что маленькие группки изменившихся после атомного взрыва людей скрываются в совершенно секретном подземном городе и совершенно не желают ни с кем поддерживать отношения...


Рейтинг

imdb.com: 6.10 (27 390)
MPAA: G - Нет возрастных ограничений


Автор рипа:Tiberiumsun69



Качество: BDRip 1080p / 60 FPS
Формат: MKV
Видео кодек: AVC
Аудио кодек:AC3
Видео: AVC, 1920x808 (2.40:1), 14000 kbps, 59,940 fps, 0,151 bpp
Аудио №1: русский / AC3 / 5.1 / 48 kHz / 448 kbps / 16 bit |Многоголосый, закадровый Омикрон|
Аудио №2: английский / AC3 / 5.1 / 48 kHz / 640 kbps / 16 bit
Навигация по главам: есть



MI
General
Unique ID : 220313270489829926883611502965802359342 (0xA5BECADFDA5A64F890BFBDFDC96B5A2E)
Complete name : A:1080p 60fpsПланета обезьян 1080p 60fpsПланета обезьян 2 Под планетой обезьян.mkv
Format : Matroska
Format version : Version 4 / Version 2
File size : 10.0 GiB
Duration : 1h 34mn
Overall bit rate : 15.1 Mbps
Movie name : R.G HD-Films by Tiberiumsun69 60fps
Encoded date : UTC 2014-11-29 06:02:53
Writing application : mkvmerge v7.3.0 ('Nouages') 64bit built on Oct 22 2014 18:53:34
Writing library : libebml v1.3.0 + libmatroska v1.4.1
Attachment : Yes

Video
ID : 1
Format : AVC
Format/Info : Advanced Video Codec
Format profile : High@L4.1
Format settings, CABAC : Yes
Format settings, ReFrames : 4 frames
Codec ID : V_MPEG4/ISO/AVC
Duration : 1h 34mn
Bit rate : 14.0 Mbps
Width : 1 920 pixels
Height : 808 pixels
Display aspect ratio : 2.40:1
Frame rate : 59.940 fps
Color space : YUV
Chroma subsampling : 4:2:0
Bit depth : 8 bits
Scan type : Progressive
Bits/(Pixel*Frame) : 0.151
Stream size : 9.08 GiB (91%)
Title : R.G HD-Films by Tiberiumsun69 60fps
Writing library : x264 core 130 r2273 b3065e6
Encoding settings : cabac=1 / ref=4 / deblock=1:-1:-1 / analyse=0x3:0 / me=umh / subme=10 / psy=1 / psy_rd=1.00:0.00 / mixed_ref=1 / me_range=32 / chroma_me=0 / trellis=2 / 8x8dct=1 / cqm=0 / deadzone=21,11 / fast_pskip=0 / chroma_qp_offset=-2 / threads=12 / lookahead_threads=1 / sliced_threads=0 / nr=0 / decimate=0 / interlaced=0 / bluray_compat=0 / constrained_intra=0 / bframes=5 / b_pyramid=2 / b_adapt=2 / b_bias=0 / direct=3 / weightb=1 / open_gop=0 / weightp=2 / keyint=250 / keyint_min=59 / scenecut=40 / intra_refresh=0 / rc_lookahead=60 / rc=2pass / mbtree=1 / bitrate=14000 / ratetol=1.0 / qcomp=0.80 / qpmin=0 / qpmax=69 / qpstep=4 / cplxblur=20.0 / qblur=0.5 / ip_ratio=1.40 / aq=1:0.80
Language : English
Default : Yes
Forced : No

Audio #1
ID : 2
Format : AC-3
Format/Info : Audio Coding 3
Mode extension : CM (complete main)
Codec ID : A_AC3
Duration : 1h 34mn
Bit rate mode : Constant
Bit rate : 448 Kbps
Channel(s) : 6 channels
Channel positions : Front: L C R, Side: L R, LFE
Sampling rate : 48.0 KHz
Bit depth : 16 bits
Compression mode : Lossy
Stream size : 304 MiB (3%)
Title : Многоголосый, закадровый Омикрон
Language : Russian
Default : Yes
Forced : No

Audio #2
ID : 3
Format : AC-3
Format/Info : Audio Coding 3
Mode extension : CM (complete main)
Codec ID : A_AC3
Duration : 1h 34mn
Bit rate mode : Constant
Bit rate : 640 Kbps
Channel(s) : 6 channels
Channel positions : Front: L C R, Side: L R, LFE
Sampling rate : 48.0 KHz
Bit depth : 16 bits
Compression mode : Lossy
Stream size : 435 MiB (4%)
Title : Оригинал
Language : English
Default : No
Forced : No

Text
ID : 4
Format : UTF-8
Codec ID : S_TEXT/UTF8
Codec ID/Info : UTF-8 Plain Text
Title : Полные
Language : English
Default : No
Forced : No

Menu
00:00:00.000 : en:00:00:00.000
00:02:38.354 : en:00:02:38.354
00:05:41.161 : en:00:05:41.161
00:09:33.310 : en:00:09:33.310
00:17:04.719 : en:00:17:04.719
00:22:58.447 : en:00:22:58.447
00:24:18.611 : en:00:24:18.611
00:31:37.633 : en:00:31:37.633
00:34:07.741 : en:00:34:07.741
00:35:21.940 : en:00:35:21.940
00:38:42.057 : en:00:38:42.057
00:41:25.303 : en:00:41:25.303
00:44:09.634 : en:00:44:09.634
00:49:33.875 : en:00:49:33.875
00:54:04.186 : en:00:54:04.186
00:57:04.700 : en:00:57:04.700
00:59:53.535 : en:00:59:53.535
01:07:53.361 : en:01:07:53.361
01:13:44.407 : en:01:13:44.407
01:18:23.603 : en:01:18:23.603
01:24:59.957 : en:01:24:59.957
01:27:06.083 : en:01:27:06.083
01:29:36.316 : en:01:29:36.316
01:34:02.833 : en:01:34:02.833




Название:
Оригинальное название: Escape from the Planet of the Apes
Год выпуска: 1971
Страна: США
Жанр: фантастика, боевик
Продолжительность: 01:37:45
Перевод: Профессиональный многоголосый
Субтитры: английские (Полные)

Режиссер: Дон Тейлор / Don Taylor

В ролях: Родди МакДауэлл (Cornelius), Ким Хантер (Zira), Брэдфорд Диллман (Dr. Lewis Dixon), Натали Транди (Dr. Stephanie Branton), Эрик Браден (Dr. Otto Hasslein), Рикардо Монтальбан (Armando), Уильям Уиндом (The President), Сэл Минео (Milo), Альберт Сэлми (E-1), Джейсон Эверс (E-2), Джон Рэндольф (Commission Chairman), Гарри Лоутер (Gen. Winthrop)


Описание:
Это третья серия из пяти, рассказывающих о жизни на Земле в конце 40-го века от Рождества Христова. Две самые продвинутые обезьяны - Зира и Корнелий - настолько далеко зашли в своих научных исследованиях, что обнаружили способ перемещения во времени и решили разобраться в причинах безобразий, происходящих на родной планете.
Для этого они отправляются в двадцатый век и оказываются в американском Лос-Анджелесе. Почему это они решили, что в таком виде в Америке можно разгуливать просто так, безнаказанно? Ошибочка вышла! Янки устраивают настоящее «сафари» на экзотические биологические объекты...


Рейтинг

imdb.com: 6.20 (19 214)
MPAA: G - Нет возрастных ограничений


Автор рипа:Tiberiumsun69



Качество: BDRip 1080p / 60 FPS
Формат: MKV
Видео кодек: AVC
Аудио кодек:AC3
Видео: AVC, 1920x800 (2.40:1), 14000 kbps, 59,940 fps, 0,152 bpp
Аудио №1: русский / AC3 / 5.1 / 48 kHz / 640 kbps / 16 bit |Многоголосый, закадровый Омикрон|
Аудио №2: английский / AC3 / 5.1 / 48 kHz / 640 kbps / 16 bit
Навигация по главам: есть



MI
General
Unique ID : 182038709344476871001991192010032278486 (0x88F361509EB6F0EE97CF3D1C23F1EBD6)
Complete name : A:1080p 60fpsПланета обезьян 1080p 60fpsПланета обезьян 3 Бегство с планеты обезьян.mkv
Format : Matroska
Format version : Version 4 / Version 2
File size : 10.4 GiB
Duration : 1h 37mn
Overall bit rate : 15.3 Mbps
Movie name : R.G HD-Films by Tiberiumsun69 60fps
Encoded date : UTC 2014-11-29 06:06:10
Writing application : mkvmerge v7.3.0 ('Nouages') 64bit built on Oct 22 2014 18:53:34
Writing library : libebml v1.3.0 + libmatroska v1.4.1
Attachment : Yes

Video
ID : 1
Format : AVC
Format/Info : Advanced Video Codec
Format profile : High@L4.1
Format settings, CABAC : Yes
Format settings, ReFrames : 4 frames
Codec ID : V_MPEG4/ISO/AVC
Duration : 1h 37mn
Bit rate : 14.0 Mbps
Width : 1 920 pixels
Height : 800 pixels
Display aspect ratio : 2.40:1
Frame rate : 59.940 fps
Color space : YUV
Chroma subsampling : 4:2:0
Bit depth : 8 bits
Scan type : Progressive
Bits/(Pixel*Frame) : 0.152
Stream size : 9.36 GiB (90%)
Title : R.G HD-Films by Tiberiumsun69 60fps
Writing library : x264 core 130 r2273 b3065e6
Encoding settings : cabac=1 / ref=4 / deblock=1:-1:-1 / analyse=0x3:0 / me=umh / subme=10 / psy=1 / psy_rd=1.00:0.00 / mixed_ref=1 / me_range=32 / chroma_me=0 / trellis=2 / 8x8dct=1 / cqm=0 / deadzone=21,11 / fast_pskip=0 / chroma_qp_offset=-2 / threads=12 / lookahead_threads=1 / sliced_threads=0 / nr=0 / decimate=0 / interlaced=0 / bluray_compat=0 / constrained_intra=0 / bframes=5 / b_pyramid=2 / b_adapt=2 / b_bias=0 / direct=3 / weightb=1 / open_gop=0 / weightp=2 / keyint=250 / keyint_min=59 / scenecut=40 / intra_refresh=0 / rc_lookahead=60 / rc=2pass / mbtree=1 / bitrate=14000 / ratetol=1.0 / qcomp=0.80 / qpmin=0 / qpmax=69 / qpstep=4 / cplxblur=20.0 / qblur=0.5 / ip_ratio=1.40 / aq=1:0.80
Language : English
Default : Yes
Forced : No

Audio #1
ID : 2
Format : AC-3
Format/Info : Audio Coding 3
Mode extension : CM (complete main)
Codec ID : A_AC3
Duration : 1h 37mn
Bit rate mode : Constant
Bit rate : 640 Kbps
Channel(s) : 6 channels
Channel positions : Front: L C R, Side: L R, LFE
Sampling rate : 48.0 KHz
Bit depth : 16 bits
Compression mode : Lossy
Stream size : 448 MiB (4%)
Title : Многоголосый, закадровый Омикрон
Language : Russian
Default : Yes
Forced : No

Audio #2
ID : 3
Format : AC-3
Format/Info : Audio Coding 3
Mode extension : CM (complete main)
Codec ID : A_AC3
Duration : 1h 37mn
Bit rate mode : Constant
Bit rate : 640 Kbps
Channel(s) : 6 channels
Channel positions : Front: L C R, Side: L R, LFE
Sampling rate : 48.0 KHz
Bit depth : 16 bits
Compression mode : Lossy
Stream size : 448 MiB (4%)
Title : Оригинал
Language : English
Default : No
Forced : No

Text
ID : 4
Format : UTF-8
Codec ID : S_TEXT/UTF8
Codec ID/Info : UTF-8 Plain Text
Title : Полные
Language : English
Default : No
Forced : No

Menu
00:00:00.000 : en:00:00:00.000
00:04:28.505 : en:00:04:28.505
00:07:32.689 : en:00:07:32.689
00:12:03.543 : en:00:12:03.543
00:15:37.799 : en:00:15:37.799
00:17:46.511 : en:00:17:46.511
00:20:25.086 : en:00:20:25.086
00:22:35.967 : en:00:22:35.967
00:32:20.259 : en:00:32:20.259
00:35:57.934 : en:00:35:57.934
00:42:05.969 : en:00:42:05.969
00:45:46.522 : en:00:45:46.522
00:50:27.428 : en:00:50:27.428
00:55:44.203 : en:00:55:44.203
01:01:19.746 : en:01:01:19.746
01:03:20.784 : en:01:03:20.784
01:05:52.060 : en:01:05:52.060
01:10:30.296 : en:01:10:30.296
01:12:37.590 : en:01:12:37.590
01:15:56.789 : en:01:15:56.789
01:19:27.166 : en:01:19:27.166
01:23:37.708 : en:01:23:37.708
01:26:17.993 : en:01:26:17.993
01:27:48.500 : en:01:27:48.500
01:31:22.547 : en:01:31:22.547
01:36:15.757 : en:01:36:15.757
01:37:02.804 : en:01:37:02.804




Название: Завоевание планеты обезьян
Оригинальное название: Conquest of the Planet of the Apes
Год выпуска: 1972
Страна: США
Жанр: фантастика, боевик
Продолжительность: 01:27:35
Перевод: Профессиональный многоголосый
Субтитры: английские (Полные)

Режиссер: Дж. Ли Томпсон / J. Lee Thompson

В ролях: Родди МакДауэлл (Caesar), Дон Мюррэй (Breck), Натали Транди (Lisa), Хари Родс (MacDonald), Северн Дарден (Kolp), Лу Вагнер (Busboy), Джон Рэндольф (Commission Chairman), Аса Мейнор (Mrs. Riley), Х. М. Вайнэнт (Hoskyns), Дэвид Чоу (Aldo), Бак Карталян (Frank - Gorilla), Джон Дэннис (Policeman)


Описание:
Через 20 лет после бегства Зиры и Корнелиуса с Планеты Обезьян, на Земле не осталось ни одной собаки или кошки. Вместо внезапно вымерших любимцев люди начали держать в домах обезьян, а, обнаружив их способность к быстрому обучению, тренировать их на выполнение несложной работы по дому. Постепенно, к 1991 году, Америка превращается в рабовладельческую державу. Владелец цирка Армандо приезжает в город с Цезарем, единственным сыном обезьян из будущего, который до сих пор считался погибшим. Армандо попадает в руки властей, снова берущихся за дело Зиры и Корнелиуса. А пораженный жестокостью и несправедливостью по отношению к своим сородичам Цезарь находит применение своему высокому интеллекту и способности говорить.


Рейтинг

imdb.com: 6.00 (19 784)
MPAA: PG - Рекомендуется присутствие родителей


Автор рипа:Tiberiumsun69



Качество: BDRip 1080p / 60 FPS
Формат: MKV
Видео кодек: AVC
Аудио кодек:AC3
Видео: AVC, 1920x808 (2.40:1), 14000 kbps, 59,940 fps, 0,151 bpp
Аудио №1: русский / AC3 / 5.1 / 48 kHz / 640 kbps / 16 bit |Многоголосый, закадровый Омикрон|
Аудио №2: английский / AC3 / 5.1 / 48 kHz / 640 kbps / 16 bit
Навигация по главам: есть



MI
General
Unique ID : 172922456531277343269757629250323220802 (0x8217A7597A144B44A491B8289A6A0942)
Complete name : A:1080p 60fpsПланета обезьян 1080p 60fpsПланета обезьян 4 Завоевание планеты обезьян.mkv
Format : Matroska
Format version : Version 4 / Version 2
File size : 9.35 GiB
Duration : 1h 27mn
Overall bit rate : 15.3 Mbps
Movie name : R.G HD-Films by Tiberiumsun69 60fps
Encoded date : UTC 2014-11-29 05:53:25
Writing application : mkvmerge v7.3.0 ('Nouages') 64bit built on Oct 22 2014 18:53:34
Writing library : libebml v1.3.0 + libmatroska v1.4.1
Attachment : Yes

Video
ID : 1
Format : AVC
Format/Info : Advanced Video Codec
Format profile : High@L4.1
Format settings, CABAC : Yes
Format settings, ReFrames : 4 frames
Codec ID : V_MPEG4/ISO/AVC
Duration : 1h 27mn
Bit rate : 14.0 Mbps
Width : 1 920 pixels
Height : 808 pixels
Display aspect ratio : 2.40:1
Frame rate : 59.940 fps
Color space : YUV
Chroma subsampling : 4:2:0
Bit depth : 8 bits
Scan type : Progressive
Bits/(Pixel*Frame) : 0.151
Stream size : 8.38 GiB (90%)
Title : R.G HD-Films by Tiberiumsun69 60fps
Writing library : x264 core 142 r2491 24e4fed
Encoding settings : cabac=1 / ref=4 / deblock=1:-1:-1 / analyse=0x3:0 / me=umh / subme=10 / psy=1 / psy_rd=1.00:0.00 / mixed_ref=1 / me_range=32 / chroma_me=0 / trellis=2 / 8x8dct=1 / cqm=0 / deadzone=21,11 / fast_pskip=1 / chroma_qp_offset=-2 / threads=12 / lookahead_threads=1 / sliced_threads=0 / nr=0 / decimate=1 / interlaced=0 / bluray_compat=0 / constrained_intra=0 / bframes=5 / b_pyramid=2 / b_adapt=2 / b_bias=0 / direct=1 / weightb=1 / open_gop=0 / weightp=2 / keyint=250 / keyint_min=59 / scenecut=40 / intra_refresh=0 / rc=2pass / mbtree=0 / bitrate=14000 / ratetol=1.0 / qcomp=0.80 / qpmin=0 / qpmax=69 / qpstep=4 / cplxblur=20.0 / qblur=0.5 / ip_ratio=1.40 / pb_ratio=1.30 / aq=1:1.00
Language : English
Default : Yes
Forced : No

Audio #1
ID : 2
Format : AC-3
Format/Info : Audio Coding 3
Mode extension : CM (complete main)
Codec ID : A_AC3
Duration : 1h 27mn
Bit rate mode : Constant
Bit rate : 640 Kbps
Channel(s) : 6 channels
Channel positions : Front: L C R, Side: L R, LFE
Sampling rate : 48.0 KHz
Bit depth : 16 bits
Compression mode : Lossy
Stream size : 401 MiB (4%)
Title : Многоголосый, закадровый Омикрон
Language : Russian
Default : Yes
Forced : No

Audio #2
ID : 3
Format : AC-3
Format/Info : Audio Coding 3
Mode extension : CM (complete main)
Codec ID : A_AC3
Duration : 1h 27mn
Bit rate mode : Constant
Bit rate : 640 Kbps
Channel(s) : 6 channels
Channel positions : Front: L C R, Side: L R, LFE
Sampling rate : 48.0 KHz
Bit depth : 16 bits
Compression mode : Lossy
Stream size : 401 MiB (4%)
Title : Оригинал
Language : English
Default : No
Forced : No

Text
ID : 4
Format : UTF-8
Codec ID : S_TEXT/UTF8
Codec ID/Info : UTF-8 Plain Text
Title : Полные
Language : English
Default : No
Forced : No

Menu
00:00:00.000 : 00:00:00.000
00:02:35.642 : 00:02:35.642
00:05:16.845 : 00:05:16.845
00:11:30.677 : 00:11:30.677
00:14:21.598 : 00:14:21.598
00:16:06.744 : 00:16:06.744
00:19:44.545 : 00:19:44.545
00:26:05.885 : 00:26:05.885
00:28:18.434 : 00:28:18.434
00:29:17.868 : 00:29:17.868
00:31:50.062 : 00:31:50.062
00:37:14.511 : 00:37:14.511
00:41:36.690 : 00:41:36.690
00:47:12.400 : 00:47:12.400
00:51:41.377 : 00:51:41.377
00:58:41.839 : 00:58:41.839
01:05:16.274 : 01:05:16.274
01:09:09.049 : 01:09:09.049
01:16:34.368 : 01:16:34.368
01:22:49.577 : 01:22:49.577
01:27:07.209 : 01:27:07.209




Название: Битва за планету обезьян
Оригинальное название: Battle for the Planet of the Apes
Год выпуска: 1973
Страна: США
Жанр: фантастика, боевик
Продолжительность: 01:26:45
Перевод: Профессиональный многоголосый
Субтитры: английские (Полные)

Режиссер: Дж. Ли Томпсон / J. Lee Thompson

В ролях: Родди МакДауэлл (Caesar / Cornelius), Клод Экинс (General Aldo), Натали Транди (Lisa), Северн Дарден (Governor Kolp), Лью Эйрз (Mandemus), Пол Уильямс (Virgil), Остин Стокер (MacDonald), Ной Кин (Abe the teacher), Ричард Истхэм (Mutant Captain), Франс Нуйен (Alma), Пол Стивенс (Mendez), Хезер Лоу (Doctor)


Описание:
Все новые и новые опасности приносит как людям, так и обезьянам будущее. На карту поставлена сама возможность существования этих биологических видов. И уже всем становится понятно, что только совместные усилия и выход на новый уровень взаимодействия дадут шанс планете в надвигающейся череде катастроф...


Рейтинг

imdb.com: 5.50 (19 964)
MPAA: G - Нет возрастных ограничений


Автор рипа:Tiberiumsun69



Качество: BDRip 1080p / 60 FPS
Формат: MKV
Видео кодек: AVC
Аудио кодек:AC3
Видео: AVC, 1920x808 (2.40:1), 14000 kbps, 59,940 fps, 0,151 bpp
Аудио №1: русский / AC3 / 5.1 / 48 kHz / 640 kbps / 16 bit |Многоголосый,закадровый Омикрон|
Аудио №2: английский / AC3 / 5.1 / 48 kHz / 640 kbps / 16 bit
Навигация по главам: есть



MI
General
Unique ID : 171891427419249546800053896206757352738 (0x815115B089F5231B870A33C87D435522)
Complete name : A:1080p 60fpsПланета обезьян 1080p 60fpsПланета обезьян 5 Битва за планету обезьян.mkv
Format : Matroska
Format version : Version 4 / Version 2
File size : 9.26 GiB
Duration : 1h 26mn
Overall bit rate : 15.3 Mbps
Movie name : R.G HD-Films by Tiberiumsun69 60fps
Encoded date : UTC 2014-11-29 10:20:00
Writing application : mkvmerge v7.3.0 ('Nouages') 64bit built on Oct 22 2014 18:53:34
Writing library : libebml v1.3.0 + libmatroska v1.4.1
Attachment : Yes

Video
ID : 1
Format : AVC
Format/Info : Advanced Video Codec
Format profile : High@L4.1
Format settings, CABAC : Yes
Format settings, ReFrames : 4 frames
Codec ID : V_MPEG4/ISO/AVC
Duration : 1h 26mn
Bit rate : 14.0 Mbps
Width : 1 920 pixels
Height : 808 pixels
Display aspect ratio : 2.40:1
Frame rate : 59.940 fps
Color space : YUV
Chroma subsampling : 4:2:0
Bit depth : 8 bits
Scan type : Progressive
Bits/(Pixel*Frame) : 0.151
Stream size : 8.30 GiB (90%)
Title : R.G HD-Films by Tiberiumsun69 60fps
Writing library : x264 core 142 r2491 24e4fed
Encoding settings : cabac=1 / ref=4 / deblock=1:-1:-1 / analyse=0x3:0 / me=umh / subme=10 / psy=1 / psy_rd=1.00:0.00 / mixed_ref=1 / me_range=32 / chroma_me=0 / trellis=2 / 8x8dct=1 / cqm=0 / deadzone=21,11 / fast_pskip=1 / chroma_qp_offset=-2 / threads=12 / lookahead_threads=1 / sliced_threads=0 / nr=0 / decimate=1 / interlaced=0 / bluray_compat=0 / constrained_intra=0 / bframes=5 / b_pyramid=2 / b_adapt=2 / b_bias=0 / direct=1 / weightb=1 / open_gop=0 / weightp=2 / keyint=250 / keyint_min=59 / scenecut=40 / intra_refresh=0 / rc=2pass / mbtree=0 / bitrate=14000 / ratetol=1.0 / qcomp=0.80 / qpmin=0 / qpmax=69 / qpstep=4 / cplxblur=20.0 / qblur=0.5 / ip_ratio=1.40 / pb_ratio=1.30 / aq=1:1.00
Language : English
Default : Yes
Forced : No

Audio #1
ID : 2
Format : AC-3
Format/Info : Audio Coding 3
Mode extension : CM (complete main)
Codec ID : A_AC3
Duration : 1h 26mn
Bit rate mode : Constant
Bit rate : 640 Kbps
Channel(s) : 6 channels
Channel positions : Front: L C R, Side: L R, LFE
Sampling rate : 48.0 KHz
Bit depth : 16 bits
Compression mode : Lossy
Stream size : 397 MiB (4%)
Title : Многоголосый, закадровый Омикрон
Language : Russian
Default : Yes
Forced : No

Audio #2
ID : 3
Format : AC-3
Format/Info : Audio Coding 3
Mode extension : CM (complete main)
Codec ID : A_AC3
Duration : 1h 26mn
Bit rate mode : Constant
Bit rate : 640 Kbps
Channel(s) : 6 channels
Channel positions : Front: L C R, Side: L R, LFE
Sampling rate : 48.0 KHz
Bit depth : 16 bits
Compression mode : Lossy
Stream size : 397 MiB (4%)
Title : Оригинал
Language : English
Default : No
Forced : No

Text
ID : 4
Format : UTF-8
Codec ID : S_TEXT/UTF8
Codec ID/Info : UTF-8 Plain Text
Title : Полные
Language : English
Default : No
Forced : No

Menu
00:00:00.000 : en:00:00:00.000
00:04:47.454 : en:00:04:47.454
00:08:57.704 : en:00:08:57.704
00:10:56.322 : en:00:10:56.322
00:15:46.696 : en:00:15:46.696
00:20:45.578 : en:00:20:45.578
00:23:40.586 : en:00:23:40.586
00:26:48.982 : en:00:26:48.982
00:30:31.997 : en:00:30:31.997
00:33:52.238 : en:00:33:52.238
00:38:24.636 : en:00:38:24.636
00:42:51.611 : en:00:42:51.611
00:44:06.769 : en:00:44:06.769
00:46:03.219 : en:00:46:03.219
00:49:25.296 : en:00:49:25.296
00:53:54.481 : en:00:53:54.481
00:58:15.742 : en:00:58:15.742
01:02:17.567 : en:01:02:17.567
01:04:42.212 : en:01:04:42.212
01:12:24.298 : en:01:12:24.298
01:15:57.136 : en:01:15:57.136
01:16:45.643 : en:01:16:45.643
01:22:34.908 : en:01:22:34.908
01:25:34.921 : en:01:25:34.921




Название: Планета обезьян
Оригинальное название: Planet of the Apes
Год выпуска: 2001
Страна: США
Жанр: фантастика, боевик, триллер, приключения
Продолжительность: 02:00:18
Перевод: Дубляж
Субтитры: русские (Полные), английские (Полные)

Режиссер: Тим Бёртон / Tim Burton

В ролях: Марк Уолберг (Captain Leo Davidson), Тим Рот (Thade), Хелена Бонем Картер (Ari), Майкл Кларк Дункан (Attar), Пол Джаматти (Limbo), Эстелла Уоррен (Daena), Кэри-Хироюки Тагава (Krull), Дэвид Уорнер (Sandar), Крис Кристофферсон (Karubi), Эрик Авари (Tival), Люк Эбрел (Birn), Эван Парк (Gunnar)


Описание:
Будущее. 2029 год. На гигантской космической станции астронавт Лео Дэвидсон обучает обезьян управлять летательными аппаратами. Неожиданно один из его учеников теряет контроль над космолетом и его уносит в еще не изученную область пространственно-временных туннелей.
Не раздумывая ни секунды, Лео бросается на выручку шимпанзе, но его постигает та же участь. Пройдя сквозь туннель, он совершает скачок во времени и попадает на неизвестную планету, где цивилизация воинствующих обезьян превратила людей в своих рабов. Оказавшись в плену у обезьян, Лео пытается отстоять права человечества на свободу.
Но как могут вооруженные палками люди сопротивляться закованным в доспехи злобным гориллам убийцам? Единственный шанс выжить и победить в этой битве, это добраться до скрывающей страшную тайну происхождения обезьян «Запретной зоны».


Рейтинг

imdb.com: 5.70 (156 818)
MPAA: PG-13 - Детям до 13 лет просмотр не желателен


Автор рипа:Tiberiumsun69



Качество: BDRip 1080p / 60 FPS
Формат: MKV
Видео кодек: AVC
Аудио кодек:AC3
Видео: AVC, 1920x816 (2.35:1), 14000 kbps, 59,940 fps, 0,149 bpp
Аудио №1: русский / AC3 / 5.1 / 48 kHz / 640 kbps / 16 bit |Дубляж|
Аудио №2: русский / AC3 / 5.1 / 48 kHz / 384 kbps / 16 bit |Многоголосый, закадровый R5|
Аудио №3: русский / AC3 / 5.1 / 48 kHz / 640 kbps / 16 bit |Многоголосый, закадровый Позитив|
Аудио №4: английский / AC3 / 5.1 / 48 kHz / 640 kbps / 16 bit
Навигация по главам: есть



MI
General
Unique ID : 251919536393659139121055726255873502417 (0xBD85F0185B95B70FBF00FD57A024ACD1)
Complete name : A:1080p 60fpsПланета обезьян 1080p 60fpsПланета обезьян 6 (2001).mkv
Format : Matroska
Format version : Version 4 / Version 2
File size : 13.7 GiB
Duration : 2h 0mn
Overall bit rate : 16.3 Mbps
Movie name : R.G HD-Films by Tiberiumsun69 60fps
Encoded date : UTC 2014-11-29 07:09:08
Writing application : mkvmerge v7.3.0 ('Nouages') 64bit built on Oct 22 2014 18:53:34
Writing library : libebml v1.3.0 + libmatroska v1.4.1
Attachment : Yes

Video
ID : 1
Format : AVC
Format/Info : Advanced Video Codec
Format profile : High@L4.1
Format settings, CABAC : Yes
Format settings, ReFrames : 4 frames
Codec ID : V_MPEG4/ISO/AVC
Duration : 2h 0mn
Bit rate : 14.0 Mbps
Width : 1 920 pixels
Height : 816 pixels
Display aspect ratio : 2.35:1
Frame rate : 59.940 fps
Color space : YUV
Chroma subsampling : 4:2:0
Bit depth : 8 bits
Scan type : Progressive
Bits/(Pixel*Frame) : 0.149
Stream size : 11.5 GiB (84%)
Title : R.G HD-Films by Tiberiumsun69 60fps
Writing library : x264 core 142 r2491 24e4fed
Encoding settings : cabac=1 / ref=4 / deblock=1:-1:-1 / analyse=0x3:0 / me=umh / subme=10 / psy=1 / psy_rd=1.00:0.00 / mixed_ref=1 / me_range=32 / chroma_me=0 / trellis=2 / 8x8dct=1 / cqm=0 / deadzone=21,11 / fast_pskip=1 / chroma_qp_offset=-2 / threads=12 / lookahead_threads=1 / sliced_threads=0 / nr=0 / decimate=1 / interlaced=0 / bluray_compat=0 / constrained_intra=0 / bframes=5 / b_pyramid=2 / b_adapt=2 / b_bias=0 / direct=1 / weightb=1 / open_gop=0 / weightp=2 / keyint=250 / keyint_min=59 / scenecut=40 / intra_refresh=0 / rc=2pass / mbtree=0 / bitrate=14000 / ratetol=1.0 / qcomp=0.80 / qpmin=0 / qpmax=69 / qpstep=4 / cplxblur=20.0 / qblur=0.5 / ip_ratio=1.40 / pb_ratio=1.30 / aq=1:1.00
Language : English
Default : Yes
Forced : No

Audio #1
ID : 2
Format : AC-3
Format/Info : Audio Coding 3
Mode extension : CM (complete main)
Codec ID : A_AC3
Duration : 2h 0mn
Bit rate mode : Constant
Bit rate : 640 Kbps
Channel(s) : 6 channels
Channel positions : Front: L C R, Side: L R, LFE
Sampling rate : 48.0 KHz
Bit depth : 16 bits
Compression mode : Lossy
Stream size : 551 MiB (4%)
Title : Дубляж
Language : Russian
Default : Yes
Forced : No

Audio #2
ID : 3
Format : AC-3
Format/Info : Audio Coding 3
Mode extension : CM (complete main)
Codec ID : A_AC3
Duration : 2h 0mn
Bit rate mode : Constant
Bit rate : 384 Kbps
Channel(s) : 6 channels
Channel positions : Front: L C R, Side: L R, LFE
Sampling rate : 48.0 KHz
Bit depth : 16 bits
Compression mode : Lossy
Stream size : 330 MiB (2%)
Title : Многоголосый, закадровый R5
Language : Russian
Default : No
Forced : No

Audio #3
ID : 4
Format : AC-3
Format/Info : Audio Coding 3
Mode extension : CM (complete main)
Codec ID : A_AC3
Duration : 2h 0mn
Bit rate mode : Constant
Bit rate : 640 Kbps
Channel(s) : 6 channels
Channel positions : Front: L C R, Side: L R, LFE
Sampling rate : 48.0 KHz
Bit depth : 16 bits
Compression mode : Lossy
Stream size : 551 MiB (4%)
Title : Многоголосый, закадровый Позитив
Language : Russian
Default : No
Forced : No

Audio #4
ID : 5
Format : AC-3
Format/Info : Audio Coding 3
Mode extension : CM (complete main)
Codec ID : A_AC3
Duration : 2h 0mn
Bit rate mode : Constant
Bit rate : 640 Kbps
Channel(s) : 6 channels
Channel positions : Front: L C R, Side: L R, LFE
Sampling rate : 48.0 KHz
Bit depth : 16 bits
Compression mode : Lossy
Stream size : 551 MiB (4%)
Title : Оригинал
Language : English
Default : No
Forced : No

Text #1
ID : 6
Format : UTF-8
Codec ID : S_TEXT/UTF8
Codec ID/Info : UTF-8 Plain Text
Title : Полные
Language : Russian
Default : No
Forced : No

Text #2
ID : 7
Format : UTF-8
Codec ID : S_TEXT/UTF8
Codec ID/Info : UTF-8 Plain Text
Title : Полные
Language : English
Default : No
Forced : No

Menu
00:00:00.000 : Main Titles
00:03:30.334 : Pericles
00:06:27.501 : Eye of the Storm
00:10:33.835 : Davidson's Risk
00:13:11.502 : Crash Landing
00:15:11.669 : The Hunted
00:17:50.869 : A World Upside-Down
00:21:18.503 : The Slave Trader
00:25:38.337 : A New Owner
00:28:08.171 : The Dinner Party
00:34:33.505 : Ari's Admirer
00:36:51.839 : The Thing From the Sky
00:38:26.339 : Escape
00:41:46.439 : An Ape Ally
00:46:28.941 : Back to the Pod
00:52:45.309 : Martial Law
00:59:45.277 : A Way to Calima
01:07:41.777 : Call to Arms
01:16:41.779 : A Human Leader
01:23:08.380 : Not So Different
01:27:54.047 : The Humans' Power
01:34:57.048 : Krull's Last Stand
01:39:33.915 : Thade's New Power
01:45:41.048 : A Chance to Go Back
01:53:01.916 : End Titles




Название: Восстание планеты обезьян
Оригинальное название: Rise of the Planet of the Apes
Год выпуска: 2011
Страна: США
Жанр: фантастика, боевик, триллер, драма
Продолжительность: 01:45:09
Перевод: Дубляж
Субтитры: русские (Форсированные), русские (Полные), английские (Полные)

Режиссер: Руперт Уайатт / Rupert Wyatt

В ролях: Джеймс Франко (Will Rodman), Фрида Пинто (Caroline Aranha), Джон Литгоу (Charles Rodman), Брайан Кокс (John Landon), Энди Серкис (Caesar), Тайлер Лабин (Robert Franklin), Том Фелтон (Dodge Landon), Дэвид Ойелоуо (Steven Jacobs), Джэми Харрис (Rodney), Карин Коновал (Maurice / Court Clerk), Терри Нотари (Rocket / Bright Eyes), Ричард Райдингс (Buck)


Описание:
Молодой ученый испытывает на обезьянах новое лекарство от болезни Альцгеймера. У препарата обнаруживается удивительный побочный эффект: он повышает в несколько раз интеллект приматов.


Рейтинг

imdb.com: 7.60 (325 273)
MPAA: PG-13 - Детям до 13 лет просмотр не желателен


Автор рипа:Tiberiumsun69



Качество: BDRip 1080p / 60 FPS
Формат: MKV
Видео кодек: AVC
Аудио кодек:AC3
Видео: AVC, 1920x816 (2.35:1), 14000 kbps, 59,940 fps, 0,149 bpp
Аудио №1: русский / AC3 / 5.1 / 48 kHz / 640 kbps / 16 bit |Дубляж|
Аудио №2: русский / AC3 / 5.1 / 48 kHz / 640 kbps / 16 bit |Многоголосый, закадровый Омикрон|
Аудио №3: английский / AC3 / 5.1 / 48 kHz / 640 kbps / 16 bit
Навигация по главам: есть



MI
General
Unique ID : 211703719701921700377193945047526904215 (0x9F44A73F674610C8B3B8F8DBC08D9197)
Complete name : A:1080p 60fpsПланета обезьян 1080p 60fpsПланета обезьян 7 Восстание планеты обезьян.mkv
Format : Matroska
Format version : Version 4 / Version 2
File size : 11.7 GiB
Duration : 1h 45mn
Overall bit rate : 15.9 Mbps
Movie name : R.G HD-Films by Tiberiumsun69 60fps
Encoded date : UTC 2014-11-29 07:54:51
Writing application : mkvmerge v7.3.0 ('Nouages') 64bit built on Oct 22 2014 18:53:34
Writing library : libebml v1.3.0 + libmatroska v1.4.1
Attachment : Yes

Video
ID : 1
Format : AVC
Format/Info : Advanced Video Codec
Format profile : High@L4.1
Format settings, CABAC : Yes
Format settings, ReFrames : 4 frames
Codec ID : V_MPEG4/ISO/AVC
Duration : 1h 45mn
Bit rate : 14.0 Mbps
Width : 1 920 pixels
Height : 816 pixels
Display aspect ratio : 2.35:1
Frame rate : 59.940 fps
Color space : YUV
Chroma subsampling : 4:2:0
Bit depth : 8 bits
Scan type : Progressive
Bits/(Pixel*Frame) : 0.149
Stream size : 10.0 GiB (86%)
Title : R.G HD-Films by Tiberiumsun69 60fps
Writing library : x264 core 142 r2491 24e4fed
Encoding settings : cabac=1 / ref=4 / deblock=1:-1:-1 / analyse=0x3:0 / me=umh / subme=10 / psy=1 / psy_rd=1.00:0.00 / mixed_ref=1 / me_range=32 / chroma_me=0 / trellis=2 / 8x8dct=1 / cqm=0 / deadzone=21,11 / fast_pskip=1 / chroma_qp_offset=-2 / threads=12 / lookahead_threads=1 / sliced_threads=0 / nr=0 / decimate=1 / interlaced=0 / bluray_compat=0 / constrained_intra=0 / bframes=5 / b_pyramid=2 / b_adapt=2 / b_bias=0 / direct=1 / weightb=1 / open_gop=0 / weightp=2 / keyint=250 / keyint_min=59 / scenecut=40 / intra_refresh=0 / rc=2pass / mbtree=0 / bitrate=14000 / ratetol=1.0 / qcomp=0.80 / qpmin=0 / qpmax=69 / qpstep=4 / cplxblur=20.0 / qblur=0.5 / ip_ratio=1.40 / pb_ratio=1.30 / aq=1:1.00
Language : English
Default : Yes
Forced : No

Audio #1
ID : 2
Format : AC-3
Format/Info : Audio Coding 3
Mode extension : CM (complete main)
Codec ID : A_AC3
Duration : 1h 45mn
Bit rate mode : Constant
Bit rate : 640 Kbps
Channel(s) : 6 channels
Channel positions : Front: L C R, Side: L R, LFE
Sampling rate : 48.0 KHz
Bit depth : 16 bits
Compression mode : Lossy
Stream size : 481 MiB (4%)
Title : Дубляж
Language : Russian
Default : Yes
Forced : No

Audio #2
ID : 3
Format : AC-3
Format/Info : Audio Coding 3
Mode extension : CM (complete main)
Codec ID : A_AC3
Duration : 1h 45mn
Bit rate mode : Constant
Bit rate : 640 Kbps
Channel(s) : 6 channels
Channel positions : Front: L C R, Side: L R, LFE
Sampling rate : 48.0 KHz
Bit depth : 16 bits
Compression mode : Lossy
Stream size : 481 MiB (4%)
Title : Многоголосый, закадровый Омикрон
Language : Russian
Default : No
Forced : No

Audio #3
ID : 4
Format : AC-3
Format/Info : Audio Coding 3
Mode extension : CM (complete main)
Codec ID : A_AC3
Duration : 1h 45mn
Bit rate mode : Constant
Bit rate : 640 Kbps
Channel(s) : 6 channels
Channel positions : Front: L C R, Side: L R, LFE
Sampling rate : 48.0 KHz
Bit depth : 16 bits
Compression mode : Lossy
Stream size : 481 MiB (4%)
Title : Оригинал
Language : English
Default : No
Forced : No

Text #1
ID : 5
Format : UTF-8
Codec ID : S_TEXT/UTF8
Codec ID/Info : UTF-8 Plain Text
Title : Форсированные
Language : Russian
Default : Yes
Forced : No

Text #2
ID : 6
Format : UTF-8
Codec ID : S_TEXT/UTF8
Codec ID/Info : UTF-8 Plain Text
Title : Полные
Language : Russian
Default : No
Forced : No

Text #3
ID : 7
Format : UTF-8
Codec ID : S_TEXT/UTF8
Codec ID/Info : UTF-8 Plain Text
Title : Полные
Language : English
Default : No
Forced : No

Menu
00:00:00.000 : :00:00:00.000
00:05:37.407 : :00:05:37.407
00:09:30.974 : :00:09:30.974
00:14:32.067 : :00:14:32.067
00:18:20.545 : :00:18:20.545
00:20:16.786 : :00:20:16.786
00:22:51.148 : :00:22:51.148
00:25:30.015 : :00:25:30.015
00:29:55.656 : :00:29:55.656
00:33:41.266 : :00:33:41.266
00:38:42.098 : :00:38:42.098
00:41:25.595 : :00:41:25.595
00:45:32.008 : :00:45:32.008
00:49:03.177 : :00:49:03.177
00:53:09.632 : :00:53:09.632
00:57:43.280 : :00:57:43.280
00:59:39.730 : :00:59:39.730
01:01:43.145 : :01:01:43.145
01:05:16.608 : :01:05:16.608
01:06:33.268 : :01:06:33.268
01:09:47.962 : :01:09:47.962
01:11:28.688 : :01:11:28.688
01:15:57.123 : :01:15:57.123
01:18:42.204 : :01:18:42.204
01:23:22.276 : :01:23:22.276
01:28:03.390 : :01:28:03.390
01:33:13.366 : :01:33:13.366
01:37:21.948 : :01:37:21.948




Название: Планета обезьян: Революция
Оригинальное название: Dawn of the Planet of the Apes
Год выпуска: 2014
Страна: США
Жанр: фантастика, боевик, драма
Продолжительность: 02:10:37
Перевод: Дубляж
Субтитры: русские (Форсированные), русские (Полные), английские (Полные)

Режиссер: Мэтт Ривз / Matt Reeves

В ролях: Энди Серкис (Caesar), Джейсон Кларк (Malcolm), Гари Олдман (Dreyfus), Кери Рассел (Ellie), Тоби Кеббелл (Koba), Коди Смит-МакФи (Alexander), Кирк Асеведо (Carver), Ник Тёрстон (Blue Eyes), Терри Нотари (Rocket), Карин Коновал (Maurice), Джуди Грир (Cornelia), Джон Эйз (Foster)


Описание:
Численность генетически модифицированных обезьян, возглавляемых Цезарем, продолжает увеличиваться, но обезьянам угрожают люди, которым удалось выжить во время ужасной эпидемии десятилетней давности. Поначалу между соперниками устанавливается хрупкий мир, но он оказывается недолговечным. Обезьяны и люди находятся на грани войны, в ходе которой станет понятно, кто из них в будущем станет безраздельно править планетой.


Рейтинг

imdb.com: 7.90 (167 876)
MPAA: PG-13 - Детям до 13 лет просмотр не желателен


Автор рипа:Tiberiumsun69



Качество: BDRip 1080p / 60 FPS
Формат: MKV
Видео кодек: AVC
Аудио кодек:AC3
Видео: AVC, 1920x1040 (16:9), 14000 kbps, 59,940 fps, 0,117 bpp
Аудио №1: русский / AC3 / 5.1 / 48 kHz / 640 kbps / 16 bit |Дубляж|
Аудио №2: английский / AC3 / 5.1 / 48 kHz / 640 kbps / 16 bit
Навигация по главам: есть



MI
General
Unique ID : 208728195047095617786311704552968795234 (0x9D07968E3D7063ECAABB1D5D4A3BB462)
Complete name : A:1080p 60fpsПланета обезьян 1080p 60fpsПланета обезьян 8 Революция.mkv
Format : Matroska
Format version : Version 4 / Version 2
File size : 13.9 GiB
Duration : 2h 10mn
Overall bit rate : 15.3 Mbps
Movie name : R.G HD-Films by Tiberiumsun69 60fps
Encoded date : UTC 2014-11-29 08:18:24
Writing application : mkvmerge v7.3.0 ('Nouages') 64bit built on Oct 22 2014 18:53:34
Writing library : libebml v1.3.0 + libmatroska v1.4.1
Attachment : Yes

Video
ID : 1
Format : AVC
Format/Info : Advanced Video Codec
Format profile : High@L4.1
Format settings, CABAC : Yes
Format settings, ReFrames : 4 frames
Codec ID : V_MPEG4/ISO/AVC
Duration : 2h 10mn
Bit rate : 14.0 Mbps
Width : 1 920 pixels
Height : 1 040 pixels
Display aspect ratio : 16:9
Frame rate : 59.940 fps
Color space : YUV
Chroma subsampling : 4:2:0
Bit depth : 8 bits
Scan type : Progressive
Bits/(Pixel*Frame) : 0.117
Stream size : 12.5 GiB (90%)
Title : R.G HD-Films by Tiberiumsun69 60fps
Writing library : x264 core 142 r2491 24e4fed
Encoding settings : cabac=1 / ref=4 / deblock=1:-1:-1 / analyse=0x3:0 / me=umh / subme=10 / psy=1 / psy_rd=1.00:0.00 / mixed_ref=1 / me_range=32 / chroma_me=0 / trellis=2 / 8x8dct=1 / cqm=0 / deadzone=21,11 / fast_pskip=1 / chroma_qp_offset=-2 / threads=12 / lookahead_threads=1 / sliced_threads=0 / nr=0 / decimate=1 / interlaced=0 / bluray_compat=0 / constrained_intra=0 / bframes=5 / b_pyramid=2 / b_adapt=2 / b_bias=0 / direct=1 / weightb=1 / open_gop=0 / weightp=2 / keyint=250 / keyint_min=59 / scenecut=40 / intra_refresh=0 / rc=2pass / mbtree=0 / bitrate=14000 / ratetol=1.0 / qcomp=0.80 / qpmin=0 / qpmax=69 / qpstep=4 / cplxblur=20.0 / qblur=0.5 / ip_ratio=1.40 / pb_ratio=1.30 / aq=1:1.00
Language : English
Default : Yes
Forced : No

Audio #1
ID : 2
Format : AC-3
Format/Info : Audio Coding 3
Mode extension : CM (complete main)
Codec ID : A_AC3
Duration : 2h 10mn
Bit rate mode : Constant
Bit rate : 640 Kbps
Channel(s) : 6 channels
Channel positions : Front: L C R, Side: L R, LFE
Sampling rate : 48.0 KHz
Bit depth : 16 bits
Compression mode : Lossy
Stream size : 598 MiB (4%)
Title : Дубляж
Language : Russian
Default : Yes
Forced : No

Audio #2
ID : 3
Format : AC-3
Format/Info : Audio Coding 3
Mode extension : CM (complete main)
Codec ID : A_AC3
Duration : 2h 10mn
Bit rate mode : Constant
Bit rate : 640 Kbps
Channel(s) : 6 channels
Channel positions : Front: L C R, Side: L R, LFE
Sampling rate : 48.0 KHz
Bit depth : 16 bits
Compression mode : Lossy
Stream size : 598 MiB (4%)
Title : Оригинал
Language : English
Default : No
Forced : No

Text #1
ID : 4
Format : UTF-8
Codec ID : S_TEXT/UTF8
Codec ID/Info : UTF-8 Plain Text
Title : Форсированные
Language : Russian
Default : Yes
Forced : No

Text #2
ID : 5
Format : UTF-8
Codec ID : S_TEXT/UTF8
Codec ID/Info : UTF-8 Plain Text
Title : Полные
Language : Russian
Default : No
Forced : No

Text #3
ID : 6
Format : UTF-8
Codec ID : S_TEXT/UTF8
Codec ID/Info : UTF-8 Plain Text
Title : Полные
Language : English
Default : No
Forced : No

Menu
00:00:00.000 : Chapter 1
00:03:34.159 : Chapter 2
00:07:47.912 : Chapter 3
00:12:49.547 : Chapter 4
00:16:36.565 : Chapter 5
00:19:00.042 : Chapter 6
00:22:05.477 : Chapter 7
00:25:39.691 : Chapter 8
00:29:58.867 : Chapter 9
00:32:03.617 : Chapter 10
00:36:57.743 : Chapter 11
00:39:20.553 : Chapter 12
00:41:10.163 : Chapter 13
00:44:25.232 : Chapter 14
00:48:24.138 : Chapter 15
00:50:44.528 : Chapter 16
00:54:01.016 : Chapter 17
00:57:38.316 : Chapter 18
01:01:31.466 : Chapter 19
01:02:48.376 : Chapter 20
01:04:37.068 : Chapter 21
01:06:34.727 : Chapter 22
01:09:44.333 : Chapter 23
01:14:09.974 : Chapter 24
01:17:30.924 : Chapter 25
01:21:06.390 : Chapter 26
01:23:41.753 : Chapter 27
01:26:21.997 : Chapter 28
01:28:32.252 : Chapter 29
01:33:37.390 : Chapter 30
01:36:06.122 : Chapter 31
01:38:51.621 : Chapter 32
01:40:55.536 : Chapter 33
01:44:20.532 : Chapter 34
01:46:18.317 : Chapter 35
01:48:07.468 : Chapter 36
01:52:26.768 : Chapter 37
01:56:40.480 : Chapter 38
02:00:44.015 : Chapter 39
02:01:48.037 : Chapter 40


Автор рипа - Tiberiumsun69


У вас нет необходимых прав для просмотра вложений в этом сообщении.


Вернуться к началу
 Профиль  
Ответить с цитатой  
  • Торрент
Автор: Consultants Хэш: ---
Добавлен: 2014-11-29 15:20 Приватный: Нет (DHT включён)
Статус:
---
Размер: 90.62 ГБ (97 299 194 373 байт)
Изменил:
---
Скачали: 0 (Раздающих: 0%)
Причина:
---
Здоровье: 0%
Сидеров: 0 Личеров: 0
Скорость раздачи: 0 байт/сек Скорость скачивания: 0 байт/сек
Последний сидер: Нет Последний личер: Нет
Для скачивания торрента необходимо зарегистрироваться или войти на трекер.
Показать сообщения за:  Поле сортировки  
Начать новую тему Ответить на тему  [ 1 сообщение ] 

Часовой пояс: UTC + 3 часа


Кто сейчас на конференции

Сейчас этот форум просматривают: нет зарегистрированных пользователей и гости: 1


Вы не можете начинать темы
Вы не можете отвечать на сообщения
Вы не можете редактировать свои сообщения
Вы не можете удалять свои сообщения
Вы не можете добавлять вложения

Найти:
Перейти:  
Переместиться наверх