Часовой пояс: UTC + 3 часа




Начать новую тему Ответить на тему  [ 1 сообщение ] 
Автор Сообщение
СообщениеДобавлено: 2014-03-23 21:18 
Не в сети
Аватара пользователя
Раздал: 7.39 ГБ
Скачал: 410.09 МБ
Ратио: 18.440


Зарегистрирован: 2013-03-13 21:22
Сообщения: 8121



Подозрительные лица / The Usual Suspects (1995) HDRip
«The truth is always in the last place you look.»

#777
Русское название: Подозрительные лица
Оригинальное название: The Usual Suspects
Год выпуска: 1995
Жанр: Триллер, Детектив
Перевод: Многоголосый закадровый
Автор перевода: "Киномания"
Субтитры: нет

Описание фильма:
"Величайшая хитрость Дъявола - это то, что он убедил мир в том, что он не существует" - такой фразой заканчивается фильм. В картине, отличающейся прекрасным сюжетом (сценарист Кристофер МакКуорри), рассказывается о гениальном преступнике, создавшим о себе легенду и заставившем бояться практически весь преступный мир. По этой легенде у него есть имя Кайзер Соза и кровавый "послужной" список, начало которому было положено в Турции. Через подставных лиц, ни с кем не вступая в прямой контакт, он заставляет работать на себя опытнейших гангстеров-профессионалов, посылая их на задание, равнозначное почти стопроцентной смерти. О том, кто был Кайзер Соза, зритель узнает только на последней минуте фильма. Чазз Палминтери в роли детектива, ведущего расследование этого почти мистического дела. Любители детективов получат удовольствие. Хотя на экране не появляется ни одного обнаженного тела, лицам до 16 не рекомендую.

Режиссер: Брайан Сингер / Bryan Singer
Актеры: Стивен Болдуин / Stephen Baldwin, Гэбриэл Бирн / Gabriel Byrne, Чазз Палминтери / Chazz Palminteri, Кевин Поллак / Kevin Pollak, Питер Постлетуэйт / Peter Postlethwaite, Кевин Спэйси / Kevin Spacey, Сьюзи Эймис / Suzy Amis, Джанкарло Эспозито / Giancarlo Esposito, Бенисио Дель Торо / Benicio Del Toro, Дэн Хедайя / Dan Hedaya

Продолжительность: 01:46:04



Дата мировой премьеры: 19 июля 1995

Видеокодек: Xvid
Битрейт видео: ~1 504 Kbps
Размер кадра: 720x304
Качество видео: HDRip
Аудиокодек: AC3 5.1
Битрейт аудио: 448 kbps
General
Format : AVI
Format/Info : Audio Video Interleave
File size : 1.45 GiB
Duration : 1h 46mn
Overall bit rate : 1 961 Kbps
Writing application : VirtualDubMod 1.5.10.2 (build 2540/release)
Writing library : VirtualDubMod build 2540/release

Video
ID : 0
Format : MPEG-4 Visual
Format profile : Advanced Simple@L5
Format settings, BVOP : 1
Format settings, QPel : No
Format settings, GMC : No warppoints
Format settings, Matrix : Custom
Codec ID : XVID
Codec ID/Hint : XviD
Duration : 1h 46mn
Bit rate : 1 504 Kbps
Width : 720 pixels
Height : 304 pixels
Display aspect ratio : 2.35:1
Frame rate : 23.976 fps
Color space : YUV
Chroma subsampling : 4:2:0
Bit depth : 8 bits
Scan type : Progressive
Compression mode : Lossy
Bits/(Pixel*Frame) : 0.287
Stream size : 1.11 GiB (77%)
Writing library : XviD 1.2.1 (UTC 2008-12-04)

Audio
ID : 1
Format : AC-3
Format/Info : Audio Coding 3
Mode extension : CM (complete main)
Codec ID : 2000
Duration : 1h 46mn
Bit rate mode : Constant
Bit rate : 448 Kbps
Channel(s) : 6 channels
Channel positions : Front: L C R, Side: L R, LFE
Sampling rate : 48.0 KHz
Bit depth : 16 bits
Compression mode : Lossy
Stream size : 340 MiB (23%)
Alignment : Split accross interleaves
Interleave, duration : 42 ms (1.00 video frame)
Interleave, preload duration : 500 ms
Скриншоты:

Время раздачи: 24/7 по мере возможности...


У вас нет необходимых прав для просмотра вложений в этом сообщении.


Вернуться к началу
 Профиль  
Ответить с цитатой  
  • Торрент
Автор: NewsRbk Хэш: ---
Добавлен: 2014-03-23 21:14 Приватный: Нет (DHT включён)
Статус:
---
Размер: 1.45 ГБ (1 559 980 032 байт)
Изменил:
---
Скачали: 0 (Раздающих: 0%)
Причина:
---
Здоровье: 0%
Сидеров: 0 Личеров: 0
Скорость раздачи: 0 байт/сек Скорость скачивания: 0 байт/сек
Последний сидер: Нет Последний личер: Нет
Для скачивания торрента необходимо зарегистрироваться или войти на трекер.
Показать сообщения за:  Поле сортировки  
Начать новую тему Ответить на тему  [ 1 сообщение ] 

Часовой пояс: UTC + 3 часа


Кто сейчас на конференции

Сейчас этот форум просматривают: нет зарегистрированных пользователей и гости: 1


Вы не можете начинать темы
Вы не можете отвечать на сообщения
Вы не можете редактировать свои сообщения
Вы не можете удалять свои сообщения
Вы не можете добавлять вложения

Найти:
Перейти:  
Переместиться наверх