Часовой пояс: UTC + 3 часа




Начать новую тему Ответить на тему  [ 1 сообщение ] 
Автор Сообщение
 Заголовок сообщения: Колония / The Colony (2013) DVDRip [VO]
СообщениеДобавлено: 2014-03-23 21:18 
Не в сети
Аватара пользователя
Раздал: 7.39 ГБ
Скачал: 410.09 МБ
Ратио: 18.440


Зарегистрирован: 2013-03-13 21:22
Сообщения: 8121



Колония / The Colony (2013) DVDRip
«When the world changes the rules of survival change with it»

#777
Год выпуска: 2013
Производство: Канада, Alcina Pictures, Item 7, Mad Samurai Productions
Жанр: Фантастика, Боевик, Триллер
Перевод: Любительский одноголосый (Вадим Белов)
Субтитры: Отсутствуют

Дата мировой премьеры: 26 апреля 2013

Режиссер: Джефф Ренфро
Продюсер: Пол Баркин, Мэттью Керви, Пьер Ивен
Актеры: Лоренс Фишбёрн, Кевин Зегерс, Билл Пэкстон, Шарлотта Салливан, Джон Тенч, Аттикус Дин Митчелл, Дрю Вигевер, Романо Орзари, Эрл Паско, Лиза Берри

Описание фильма:
После природного катаклизма, под ледяной поверхностью, покрывшей Землю, оставшиеся в живых люди собрались в Колонию 7 и пытаются выжить несмотря на сокращающиеся запасы продовольствия. Они еще поддерживают связь с Колонией 5, но после того, как контакт с ними теряется, группа смельчаков отправляется в опасную экспедицию, чтобы выяснить, что произошло с их соседями. Преодолев тяжелейший путь герои сталкиваются с опасностью во много раз превосходящую природную угрозу холода…



Продолжительность: 01:34:13
Качество видео: DVDRip

Видеокодек: Xvid
Битрейт видео: ~1625 Kbit/s
Размер кадра: 720 x 384
Аудиокодек: AC3 2.0
Битрейт аудио: 448 Kbit/s
Общее
Полное имя : D:\Торренты\ФИЛЬМЫ торента\Колония.2013.DVDRip.avi
Формат : AVI
Формат/Информация : Audio Video Interleave
Профиль формата : OpenDML
Размер файла : 1,37 Гбайт
Продолжительность : 1 ч. 34 м.
Общий поток : 2086 Кбит/сек
Программа кодирования : Lavf54.25.104

Видео
Идентификатор : 0
Формат : MPEG-4 Visual
Профиль формата : Simple@L3
Параметр BVOP формата : Нет
Параметр QPel формата : Нет
Параметр GMC формата : Без точки перехода
Параметр матрицы формата : Default (H.263)
Идентификатор кодека : XVID
Идентификатор кодека/Подсказка : XviD
Продолжительность : 1 ч. 34 м.
Битрейт : 1625 Кбит/сек
Ширина : 720 пикс.
Высота : 384 пикс.
Соотношение сторон : 16:9
Частота кадров : 29,970 кадр/сек
Цветовое пространство : YUV
Подвыборка цветности : 4:2:0
Битовая глубина : 8 бит
Тип развёртки : Прогрессивная
Метод сжатия : С потерями
Бит/(Пиксели*Кадры) : 0.196
Размер потока : 1,07 Гбайт (78%)
Библиотека кодирования : XviD 64

Аудио
Идентификатор : 1
Формат : AC-3
Формат/Информация : Audio Coding 3
Расширение режима : CM (complete main)
Идентификатор кодека : 2000
Продолжительность : 1 ч. 34 м.
Вид битрейта : Постоянный
Битрейт : 448 Кбит/сек
Каналы : 2 канала
Расположение каналов : Front: L R
Частота : 48,0 КГц
Битовая глубина : 16 бит
Метод сжатия : С потерями
Размер потока : 302 Мбайт (21%)
Выравнивание : Соединение по промежуткам
Продолжительность промежутка : 32 мс. (0,96 видеокадр)

Скриншоты:

Время раздачи: 24/7 по возможности


У вас нет необходимых прав для просмотра вложений в этом сообщении.


Вернуться к началу
 Профиль  
Ответить с цитатой  
  • Торрент
Автор: NewsRbk Хэш: ---
Добавлен: 2014-03-23 21:14 Приватный: Нет (DHT включён)
Статус:
---
Размер: 1.37 ГБ (1 474 619 538 байт)
Изменил:
---
Скачали: 1 (Раздающих: 0%)
Причина:
---
Здоровье: 0%
Сидеров: 0 Личеров: 0
Скорость раздачи: 0 байт/сек Скорость скачивания: 0 байт/сек
Последний сидер: Нет Последний личер: Нет
Для скачивания торрента необходимо зарегистрироваться или войти на трекер.
Показать сообщения за:  Поле сортировки  
Начать новую тему Ответить на тему  [ 1 сообщение ] 

Часовой пояс: UTC + 3 часа


Кто сейчас на конференции

Сейчас этот форум просматривают: нет зарегистрированных пользователей и гости: 1


Вы не можете начинать темы
Вы не можете отвечать на сообщения
Вы не можете редактировать свои сообщения
Вы не можете удалять свои сообщения
Вы не можете добавлять вложения

Найти:
Перейти:  
cron
Переместиться наверх