Часовой пояс: UTC + 3 часа




Начать новую тему Ответить на тему  [ 1 сообщение ] 
Автор Сообщение
СообщениеДобавлено: 2014-03-23 21:18 
Не в сети
Аватара пользователя
Раздал: 7.39 ГБ
Скачал: 410.09 МБ
Ратио: 18.440


Зарегистрирован: 2013-03-13 21:22
Сообщения: 8121



Элитное общество / The Bling Ring (2013) DVDRip
«Где украсть красивую жизнь?»

#777
Год выпуска: 2013
Производство: США, Великобритания, Франция, Германия, Япония
Жанр: Драма, Криминал
Перевод: Дублированный
Субтитры: Отсутствуют

Дата мировой премьеры: 16 мая 2013
Дата российской премьеры: 4 июля 2013, «Парадиз»
Дата выхода DVD релиза: 3 сентября 2013, «Парадиз / Активижен»

Режиссер: София Коппола
Продюсер: Роман Коппола, София Коппола, Юри Хенли
Актеры: Израэль Бруссар, Кэти Чанг, Эмма Уотсон, Таисса Фармига, Клер Элис Жюльен, Гэвин Россдэйл, Джорджия Рок, Лесли Манн, Карлос Миранда, Стэйси Эдвардс...

Описание фильма:
В поисках адреналина и приключений пятеро отчаянных подростков ради прикола стали навещать богатые особняки в окрестностях Голливуда. Наведываясь в гости к Линдси Лохан, Орландо Блуму, Пэрис Хилтон и другим голливудским звездам, девушки, конечно, больше интересовались дизайнерской одеждой и драгоценностями, а юноши — просто деньгами. Совершив десять краж со взломом, ребятки награбили больше трех миллионов долларов…



Продолжительность: 01:26:34
Качество видео: DVDRip

Видеокодек: MPEG-4 AVC/H.264
Битрейт видео: ~2022 Kbit/s
Размер кадра: 720x552@1020x552
Аудиокодек: AC3, 5.1
Битрейт аудио: 384 Kbit/s
Общее
Уникальный идентификатор : 204458048685935245633505674391830615629 (0x99D13015DB94ABEAA2FD6C34E577564D)
Полное имя : D:\Торренты\Элитное общество.2013.DVDRip.AVC.mkv
Формат : Matroska
Размер файла : 1,46 Гбайт
Продолжительность : 1 ч. 26 м.
Общий поток : 2407 Кбит/сек
Дата кодирования : UTC 2013-08-31 17:02:21
Программа кодирования : mkvmerge v5.0.1 ('Es ist Sommer') built on Nov 6 2011 16:23:40
Библиотека кодирования : libebml v1.2.2 + libmatroska v1.3.0

Видео
Идентификатор : 1
Формат : AVC
Формат/Информация : Advanced Video Codec
Профиль формата : [url=mailto:High@L4.1]High@L4.1[/url]
Параметр CABAC формата : Да
Параметр ReFrames формата : 11 кадров
Идентификатор кодека : V_MPEG4/ISO/AVC
Продолжительность : 1 ч. 26 м.
Битрейт : 2022 Кбит/сек
Ширина : 720 пикс.
Высота : 552 пикс.
Соотношение сторон : 1,850
Частота кадров : 25,000 кадр/сек
Цветовое пространство : YUV
Подвыборка цветности : 4:2:0
Битовая глубина : 8 бит
Тип развёртки : Прогрессивная
Бит/(Пиксели*Кадры) : 0.204
Размер потока : 1,19 Гбайт (82%)
Библиотека кодирования : x264 core 130 r2273 b3065e6
Настройки программы : cabac=1 / ref=11 / deblock=1:-2:-1 / analyse=0x3:0x113 / me=umh / subme=9 / psy=1 / psy_rd=1.00:0.20 / mixed_ref=1 / me_range=32 / chroma_me=1 / trellis=1 / 8x8dct=1 / cqm=0 / deadzone=21,11 / fast_pskip=0 / chroma_qp_offset=-3 / threads=9 / lookahead_threads=1 / sliced_threads=0 / nr=0 / decimate=0 / interlaced=0 / bluray_compat=0 / constrained_intra=0 / bframes=8 / b_pyramid=2 / b_adapt=2 / b_bias=0 / direct=3 / weightb=1 / open_gop=0 / weightp=2 / keyint=250 / keyint_min=25 / scenecut=40 / intra_refresh=0 / rc_lookahead=60 / rc=2pass / mbtree=1 / bitrate=2022 / ratetol=1.0 / qcomp=0.60 / qpmin=0 / qpmax=69 / qpstep=4 / cplxblur=20.0 / qblur=0.5 / ip_ratio=1.40 / aq=1:1.00

Аудио
Идентификатор : 2
Формат : AC-3
Формат/Информация : Audio Coding 3
Расширение режима : CM (complete main)
Идентификатор кодека : A_AC3
Продолжительность : 1 ч. 26 м.
Вид битрейта : Постоянный
Битрейт : 384 Кбит/сек
Каналы : 6 каналов
Расположение каналов : Front: L C R, Side: L R, LFE
Частота : 48,0 КГц
Битовая глубина : 16 бит
Метод сжатия : С потерями
Размер потока : 238 Мбайт (16%)

Скриншоты:

Время раздачи: 24/7 по возможности


У вас нет необходимых прав для просмотра вложений в этом сообщении.


Вернуться к началу
 Профиль  
Ответить с цитатой  
  • Торрент
Автор: NewsRbk Хэш: ---
Добавлен: 2014-03-23 21:14 Приватный: Нет (DHT включён)
Статус:
---
Размер: 1.46 ГБ (1 562 693 380 байт)
Изменил:
---
Скачали: 0 (Раздающих: 0%)
Причина:
---
Здоровье: 0%
Сидеров: 0 Личеров: 0
Скорость раздачи: 0 байт/сек Скорость скачивания: 0 байт/сек
Последний сидер: Нет Последний личер: Нет
Для скачивания торрента необходимо зарегистрироваться или войти на трекер.
Показать сообщения за:  Поле сортировки  
Начать новую тему Ответить на тему  [ 1 сообщение ] 

Часовой пояс: UTC + 3 часа


Кто сейчас на конференции

Сейчас этот форум просматривают: нет зарегистрированных пользователей и гости: 2


Вы не можете начинать темы
Вы не можете отвечать на сообщения
Вы не можете редактировать свои сообщения
Вы не можете удалять свои сообщения
Вы не можете добавлять вложения

Найти:
Перейти:  
cron
Переместиться наверх