Часовой пояс: UTC + 3 часа




Начать новую тему Ответить на тему  [ 1 сообщение ] 
Автор Сообщение
 Заголовок сообщения: Лавлэйс / Lovelace (2013) HDRip
СообщениеДобавлено: 2014-03-23 21:19 
Не в сети
Аватара пользователя
Раздал: 7.39 ГБ
Скачал: 410.09 МБ
Ратио: 18.440


Зарегистрирован: 2013-03-13 21:22
Сообщения: 8121



Лавлэйс / Lovelace (2013) HDRip
«Легенда запретного кино»

#777
Год выпуска: 2013
Производство: США | Animus Films, Eclectic Pictures, Millennium Films
Жанр: Драма, Биография
Перевод: Дублированный (Лицензия)
Субтитры: Отсутствуют
Дата мировой премьеры: 22 января 2013 (США, Кинофестиваль «Сандэнс»)
Дата российской премьеры: 5 сентября 2013, «Парадиз»
Дата выхода DVD релиза: 5 ноября 2013, «Парадиз / Активижен»
Режиссер: Роб Эпштейн, Джеффри Фридман
Продюсеры: Хайди Джо Маркел, Лаура Ристер, Джейсон Вайнберг
Актеры: Аманда Сайфред, Питер Сарсгаард, Шэрон Стоун, Хэнк Азария, Уэс Бентли, Адам Броди, Бобби Каннавале, Джеймс Франко, Деби Мейзар, Крис Нот, Роберт Патрик
Описание фильма:
Биография самой известной порноактрисы Линды Лавлейс. Чтобы заработать подобную славу, ей нужно было сыграть только в одном фильме — «Глубокая глотка». Всю свою жизнь после этого она посвятила борьбе за права женщин.


Продолжительность: 01:32:47
Качество видео: HDRip

Видеокодек: Xvid
Битрейт видео: ~1862 Кбит/сек
Размер кадра: 720 x 384 (1.875) at 23.976 fps
Аудиокодек: AC3 5.1
Битрейт аудио: 384 Кбит/сек, 48,0 КГц

• В симулированных сценах орального секса в качестве заменителя полового члена использовалось фруктовое мороженое на палочке.
• Джеймс Франко получил предложение сыграть Чака Трейнора, прежде чем роль получил Питер Сарсгаард. Впоследствии Франко получил эпизодическую роль Хью Хефнера.
• Оливия Уайлд должна была исполнить ведущую роль, однако покинула проект из-за плотного графика.
Кейт Хадсон могла сыграть главную роль.
• Деми Мур должна была исполнить роль Глории Стейнем, однако вынуждена была покинуть проект из-за проблем со здоровьем. Мэри-Луиз Паркер рассматривалась в качестве замены, но вместо нее взяли Сару Джессику Паркер, которая согласилась на роль за неделю до окончания съемок, и сцены с ее участием так и не вошли в финальную версию фильма.
• В сцене, происходящей в 1970-м, два персонажа обсуждают фильм «Французский связной», который был выпущен в 1971 году.
• Во время вечеринки в 1970 году по радио играет песня Элвина Бишопа — «Fooled Around And Fell In Love». Эта песня была выпущена только в 1976 году.
Код:
Полное имя                               : G:\Фильмы 2013\Лавлэйс  Lovelace (2013BDRipHDRip)\Lovelace.2013.D.HDRip.NNM-CLUB.avi
Формат                                   : AVI
Формат/Информация                        : Audio Video Interleave
Размер файла                             : 1,46 Гбайт
Продолжительность                        : 1 ч. 32 м.
Общий поток                              : 2255 Кбит/сек
Программа кодирования                    : VirtualDubMod 1.5.10.2 (build 2540/release)
Библиотека кодирования                   : VirtualDubMod build 2540/release

Видео
Идентификатор                            : 0
Формат                                   : MPEG-4 Visual
Профиль формата                          : Advanced Simple@L5
Параметр BVOP формата                    : 2
Параметр QPel формата                    : Нет
Параметр GMC формата                     : Без точки перехода
Параметр матрицы формата                 : Default (MPEG)
Идентификатор кодека                     : XVID
Идентификатор кодека/Подсказка           : XviD
Продолжительность                        : 1 ч. 32 м.
Битрейт                                  : 1862 Кбит/сек
Ширина                                   : 720 пикселей
Высота                                   : 384 пикселя
Соотношение сторон                       : 1,85:1
Частота кадров                           : 23,976 кадра/сек
Цветовое пространство                    : YUV
Субдискретизация насыщенности            : 4:2:0
Битовая глубина                          : 8 бит
Тип развёртки                            : Прогрессивная
Метод сжатия                             : С потерями
Бит/(Пиксели*Кадры)                      : 0.281
Размер потока                            : 1,21 Гбайт (83%)
Библиотека кодирования                   : XviD 1.2.1 (UTC 2008-12-04)

Аудио
Идентификатор                            : 1
Формат                                   : AC-3
Формат/Информация                        : Audio Coding 3
Расширение режима                        : CM (complete main)
Параметр Endianness формата              : Big
Идентификатор кодека                     : 2000
Продолжительность                        : 1 ч. 32 м.
Вид битрейта                             : Постоянный
Битрейт                                  : 384 Кбит/сек
Каналы                                   : 6 каналов
Расположение каналов                     : Front: L C R, Side: L R, LFE
Частота                                  : 48,0 КГц
Битовая глубина                          : 16 бит
Метод сжатия                             : С потерями
Размер потока                            : 255 Мбайт (17%)
Выравнивание                             : Разделение по промежуткам
Продолжительность промежутка             : 42  мс. (1,00 видеокадр)
Время предзагрузки промежутка            : 500  мс.

Скриншоты:








Все релизы Лавлэйс на NNM-CLUB

Время раздачи: 24/7 (до 10 скачавших)


У вас нет необходимых прав для просмотра вложений в этом сообщении.


Вернуться к началу
 Профиль  
Ответить с цитатой  
  • Торрент
Автор: NewsRbk Хэш: ---
Добавлен: 2014-03-23 21:14 Приватный: Нет (DHT включён)
Статус:
---
Размер: 1.46 ГБ (1 569 439 744 байт)
Изменил:
---
Скачали: 0 (Раздающих: 0%)
Причина:
---
Здоровье: 0%
Сидеров: 0 Личеров: 0
Скорость раздачи: 0 байт/сек Скорость скачивания: 0 байт/сек
Последний сидер: Нет Последний личер: Нет
Для скачивания торрента необходимо зарегистрироваться или войти на трекер.
Показать сообщения за:  Поле сортировки  
Начать новую тему Ответить на тему  [ 1 сообщение ] 

Часовой пояс: UTC + 3 часа


Кто сейчас на конференции

Сейчас этот форум просматривают: нет зарегистрированных пользователей и гости: 3


Вы не можете начинать темы
Вы не можете отвечать на сообщения
Вы не можете редактировать свои сообщения
Вы не можете удалять свои сообщения
Вы не можете добавлять вложения

Найти:
Перейти:  
cron
Переместиться наверх