Часовой пояс: UTC + 3 часа




Начать новую тему Ответить на тему  [ 1 сообщение ] 
Автор Сообщение
СообщениеДобавлено: 2014-03-23 21:19 
Не в сети
Аватара пользователя
Раздал: 7.39 ГБ
Скачал: 410.09 МБ
Ратио: 18.440


Зарегистрирован: 2013-03-13 21:22
Сообщения: 8121



Цвет ночи / Color of Night [Director's Cut] (1994) BDRip [H.264/720p-LQ] [Hi10P]

#777
Год выпуска: 1994
Жанр: Триллер, Драма, Детектив, Эротика
Перевод: Профессиональный (многоголосый, закадровый)x2, Авторский (одноголосый, закадровый), Многоголосый (украинский)
Оригинальная аудио дорожка: Английская
Язык субтитров: Русский, Английский
Вид субтитров: Вшитые

Описание фильма: Брюс Уиллис в роли нью-йоркского психолога, потерявшего пациентку - она выбросилась в окно прямо во время сеанса. Чтобы прийти в себя, он едет в Лос-Анджелес к своему другу, с которым они вместе учились.
Там он присутствует на групповом сеансе психотерапии, а ночью друга зверски убивают ножом с нанесением множества ножевых ранений. Не без участия полиции герой Уиллиса берется вести дальше эту группу, так как следователь подозревает, что убийцей может быть один из больных...

Режиссер: Ричард Раш

Актеры: Брюс Уиллис, Джейн Марч, Рубен Бладес, Лесли Энн Уоррен, Скотт Бакула, Брэд Дуриф, Лэнс Хенриксен, Кевин Дж. О’Коннор, Эндрю Лоури, Эрик Ла Салль

Качество видео: BDRip
Продолжительность: 02:19:18



Основной файл весит 2,49гб с одной звуковой дорожкой!

Формат: MKV
Видео: MPEG-4 AVC/H.264, 1280x696(1,85:1), 23,976fps, 2319 Кbps, 0.109bit/pixel
Аудио 1: MVO Russian, AC3, 2ch, 48 kHz, 192 kbps, (Многоголосый - Нева-1)
Аудио 2: MVO Russian, AC3, 2ch, 48 kHz, 192 kbps, (Многоголосый - РенТВ) - Отдельным файлом
Аудио 3: AVO Russian, AC3, 2ch, 48 kHz, 192 kbps, (Одноголосый - Живов) - Отдельным файлом
Аудио 4: MVO Ukrainian, AC3, 2ch, 48 kHz, 192 kbps, (Многоголосый - 1+1) - Отдельным файлом
Аудио 5: English, AC3, 2ch, 48 kHz, 192 kbps, (Оригинал) - Отдельным файлом
Общее
Полное имя : Цвет ночи - Режиссёрская версия (1994) BDRip-AVC.mkv
Формат : Matroska
Версия формата : Version 4 / Version 2
Размер файла : 3,24 Гбайт
Продолжительность : 2 ч. 19 м.
Общий поток : 3331 Кбит/сек
Название фильма : Цвет ночи / Color of Night [Director's Cut] (1994) BDRip-AVC (Sinteros)
Программа кодирования : mkvmerge v6.8.0 ('Theme for Great Cities') 64bit built on Mar 2 2014 21:34:26
Библиотека кодирования : libebml v1.3.0 + libmatroska v1.4.1
Attachment : Yes

Видео
Идентификатор : 1
Формат : AVC
Формат/Информация : Advanced Video Codec
Профиль формата : High [url=mailto:10@L4.1]10@L4.1[/url]
Параметр CABAC формата : Да
Параметр ReFrames формата : 11 кадров
Идентификатор кодека : V_MPEG4/ISO/AVC
Продолжительность : 2 ч. 19 м.
Битрейт : 2319 Кбит/сек
Ширина : 1280 пикселей
Высота : 696 пикселей
Соотношение сторон : 1,85:1
Режим частоты кадров : Постоянный
Частота кадров : 23,976 кадра/сек
Цветовое пространство : YUV
Субдискретизация насыщенности : 4:2:0
Битовая глубина : 10 бит
Тип развёртки : Прогрессивная
Бит/(Пиксели*Кадры) : 0.109
Размер потока : 2,24 Гбайт (69%)
Заголовок : MPEG-4 AVC/H.264, 1280x696(1,85:1), 23,976fps, 2319 Кbps, 0.109bit/pixel
Библиотека кодирования : x264 core 133 r2334 a3ac64b
Настройки программы : cabac=1 / ref=11 / deblock=1:-1:-1 / analyse=0x3:0x133 / me=tesa / subme=10 / psy=1 / psy_rd=1.00:0.15 / mixed_ref=1 / me_range=24 / chroma_me=1 / trellis=2 / 8x8dct=1 / cqm=0 / deadzone=21,11 / fast_pskip=1 / chroma_qp_offset=-3 / threads=12 / lookahead_threads=1 / sliced_threads=0 / nr=0 / decimate=1 / interlaced=0 / bluray_compat=0 / constrained_intra=0 / bframes=6 / b_pyramid=2 / b_adapt=2 / b_bias=0 / direct=1 / weightb=1 / open_gop=0 / weightp=2 / keyint=250 / keyint_min=23 / scenecut=40 / intra_refresh=0 / rc_lookahead=60 / rc=crf / mbtree=1 / crf=19.7 / qcomp=0.60 / qpmin=0 / qpmax=81 / qpstep=4 / ip_ratio=1.40 / aq=1:1.00
Язык : English
Default : Да
Forced : Нет

Аудио #1
Идентификатор : 2
Формат : AC-3
Формат/Информация : Audio Coding 3
Расширение режима : CM (complete main)
Параметр Endianness формата : Big
Идентификатор кодека : A_AC3
Продолжительность : 2 ч. 19 м.
Вид битрейта : Постоянный
Битрейт : 192 Кбит/сек
Каналы : 2 канала
Расположение каналов : Front: L R
Частота : 48,0 КГц
Битовая глубина : 16 бит
Метод сжатия : С потерями
Размер потока : 191 Мбайт (6%)
Заголовок : MVO Russian, AC3, 2ch, 48 kHz, 192 kbps, (Многоголосый - Нева-1)
Язык : Russian
Default : Да
Forced : Нет

Аудио #2 - Отдельным файлом
Идентификатор : 3
Формат : AC-3
Формат/Информация : Audio Coding 3
Расширение режима : CM (complete main)
Параметр Endianness формата : Big
Идентификатор кодека : A_AC3
Продолжительность : 2 ч. 19 м.
Вид битрейта : Постоянный
Битрейт : 192 Кбит/сек
Каналы : 2 канала
Расположение каналов : Front: L R
Частота : 48,0 КГц
Битовая глубина : 16 бит
Метод сжатия : С потерями
Размер потока : 191 Мбайт (6%)
Заголовок : MVO Russian, AC3, 2ch, 48 kHz, 192 kbps, (Многоголосый - РенТВ)
Язык : Russian
Default : Нет
Forced : Нет

Аудио #3 - Отдельным файлом
Идентификатор : 4
Формат : AC-3
Формат/Информация : Audio Coding 3
Расширение режима : CM (complete main)
Параметр Endianness формата : Big
Идентификатор кодека : A_AC3
Продолжительность : 2 ч. 19 м.
Вид битрейта : Постоянный
Битрейт : 192 Кбит/сек
Каналы : 2 канала
Расположение каналов : Front: L R
Частота : 48,0 КГц
Битовая глубина : 16 бит
Метод сжатия : С потерями
Размер потока : 191 Мбайт (6%)
Заголовок : AVO Russian, AC3, 2ch, 48 kHz, 192 kbps, (Одноголосый - Живов)
Язык : Russian
Default : Нет
Forced : Нет

Аудио #4 - Отдельным файлом
Идентификатор : 5
Формат : AC-3
Формат/Информация : Audio Coding 3
Расширение режима : CM (complete main)
Параметр Endianness формата : Big
Идентификатор кодека : A_AC3
Продолжительность : 2 ч. 19 м.
Вид битрейта : Постоянный
Битрейт : 192 Кбит/сек
Каналы : 2 канала
Расположение каналов : Front: L R
Частота : 48,0 КГц
Битовая глубина : 16 бит
Метод сжатия : С потерями
Размер потока : 191 Мбайт (6%)
Заголовок : MVO Ukrainian, AC3, 2ch, 48 kHz, 192 kbps, (Многоголосый - 1+1)
Язык : Ukrainian
Default : Нет
Forced : Нет

Аудио #5 - Отдельным файлом
Идентификатор : 6
Формат : AC-3
Формат/Информация : Audio Coding 3
Расширение режима : CM (complete main)
Параметр Endianness формата : Big
Идентификатор кодека : A_AC3
Продолжительность : 2 ч. 19 м.
Вид битрейта : Постоянный
Битрейт : 192 Кбит/сек
Каналы : 2 канала
Расположение каналов : Front: L R
Частота : 48,0 КГц
Битовая глубина : 16 бит
Метод сжатия : С потерями
Размер потока : 191 Мбайт (6%)
Заголовок : English, AC3, 2ch, 48 kHz, 192 kbps, (Оригинал)
Язык : English
Default : Нет
Forced : Нет

Текст #1
Идентификатор : 7
Формат : UTF-8
Идентификатор кодека : S_TEXT/UTF8
Идентификатор кодека/Информация : UTF-8 Plain Text
Язык : Russian
Default : Нет
Forced : Нет

Текст #2
Идентификатор : 8
Формат : UTF-8
Идентификатор кодека : S_TEXT/UTF8
Идентификатор кодека/Информация : UTF-8 Plain Text
Язык : English
Default : Нет
Forced : Нет

Меню
00:00:00.000 : :Chapter 01
00:08:27.464 : :Chapter 02
00:17:53.196 : :Chapter 03
00:29:09.706 : :Chapter 04
00:37:53.103 : :Chapter 05
00:46:50.098 : :Chapter 06
00:56:37.477 : :Chapter 07
01:04:18.062 : :Chapter 08
01:16:07.104 : :Chapter 09
01:29:03.463 : :Chapter 10
01:52:58.897 : :Chapter 11
02:04:57.448 : :Chapter 12
02:19:18.767 : :Chapter 13
Примечание: Рип в High 10 Profile, в настоящее время не поддерживается большинством аппаратных проигрывателей, поэтому предназначен исключительно для воспроизведения на ПК.
Для корректного воспроизведения может потребоваться обновление ПО.

Скриншоты:





Время раздачи: 24/7 (жду до 10-15 скачавших, а дальше могу уйти с радачи)


У вас нет необходимых прав для просмотра вложений в этом сообщении.


Вернуться к началу
 Профиль  
Ответить с цитатой  
  • Торрент
Автор: NewsRbk Хэш: ---
Добавлен: 2014-03-23 21:14 Приватный: Нет (DHT включён)
Статус:
---
Размер: 3.24 ГБ (3 479 835 773 байт)
Изменил:
---
Скачали: 0 (Раздающих: 0%)
Причина:
---
Здоровье: 0%
Сидеров: 0 Личеров: 0
Скорость раздачи: 0 байт/сек Скорость скачивания: 0 байт/сек
Последний сидер: Нет Последний личер: Нет
Для скачивания торрента необходимо зарегистрироваться или войти на трекер.
Показать сообщения за:  Поле сортировки  
Начать новую тему Ответить на тему  [ 1 сообщение ] 

Часовой пояс: UTC + 3 часа


Кто сейчас на конференции

Сейчас этот форум просматривают: нет зарегистрированных пользователей и гости: 1


Вы не можете начинать темы
Вы не можете отвечать на сообщения
Вы не можете редактировать свои сообщения
Вы не можете удалять свои сообщения
Вы не можете добавлять вложения

Найти:
Перейти:  
Переместиться наверх