Часовой пояс: UTC + 3 часа




Начать новую тему Ответить на тему  [ 1 сообщение ] 
Автор Сообщение
 Заголовок сообщения: Мачо и ботан / 21 Jump Street (2012) HDRip
СообщениеДобавлено: 2014-03-23 21:19 
Не в сети
Аватара пользователя
Раздал: 7.39 ГБ
Скачал: 410.09 МБ
Ратио: 18.440


Зарегистрирован: 2013-03-13 21:22
Сообщения: 8121



Мачо и ботан / 21 Jump Street (2012) HDRip

#777
Русское название: Мачо и ботан
Оригинальное название: 21 Jump Street
Год выпуска: 2012
Жанр: Боевик, комедия
Производство: США, Columbia Pictures / Relativity Media / Metro-Goldwyn-Mayer (MGM) / Original Film
Перевод: Дублированный
Субтитры: Отсутствуют
Режиссер: Фил Лорд, Крис Миллер
Актеры: Джона Хилл, Ченнинг Татум, Бри Ларсон, Дэйв Франко, Роб Риггл, Айс Кьюб, ДеРэй Дэвис, Дакс Флэйм, Крис Парнелл, Элли Кемпер, Джэйк М. Джонсон, Ник Офферман, Холли Робинсон Пит, Джонни Пембертон, Стэнли Вонг, Джастин Хайрс, Бретт Лапейрус, Линдси Броад, Кэролайн Аарон, Джо Крест, Джеральдин Сингер, Дакота Джонсон, Руй Руй, Валери Тиан, Джарен Митчелл, Джонни Симмонс, Кейт Кертц, Рендал Ридер, Питер Эпштейн, Энтони Молинари, Луис Да Силва мл., Доминик Таз Александр, Майкл Сил, Спенсер Болдмэн, Джо Уильямс, Чад Хесслер, Кевин Майкл Мерфи, Виктор Пагуйя, Шанель Целая, Кэрол Саттон

Описание фильма:
Двое новоиспеченных горе-полицейских отправляются на сверхсекретное задание. Им предстоит заново стать учениками средней школы, в которой процветает наркоторговля.
Премьера (мир): 12 марта 2012, ...
Премьера (РФ): 12 апреля 2012, «WDSSPR»
Релиз на DVD: 15 мая 2012, «Columbia/Sony», ...
Релиз на Blu-Ray: 7 августа 2012, «Columbia/Sony», ...


Продолжительность: 01:49:37
Качество видео: HDRip
Контейнер: AVI

Видеокодек: XviD
Битрейт видео: 1789 kbps
Размер кадра: 720x304
Аудио 1: [Русский] AC3, 6 ch, 448 kbps
Аудио 2: [Английский] AC3, 6 ch, 448 kbps
Код:
Общее
Полное имя                               : F:\Загрузки с торрена\Macho.i.botan.2012.XviD.HDRip.avi
Формат                                   : AVI
Формат/Информация                        : Audio Video Interleave
Профиль формата                          : OpenDML
Размер файла                             : 2,06 Гбайт
Продолжительность                        : 1 ч. 49 м.
Общий поток                              : 2692 Кбит/сек
Программа кодирования                    : VirtualDubMod 1.5.10.2 (build 2542/release)
Библиотека кодирования                   : VirtualDubMod build 2542/release

Видео
Идентификатор                            : 0
Формат                                   : MPEG-4 Visual
Профиль формата                          : Advanced Simple@L5
Параметр BVOP формата                    : 2
Параметр QPel формата                    : Нет
Параметр GMC формата                     : Без точки перехода
Параметр матрицы формата                 : Default (MPEG)
Идентификатор кодека                     : XVID
Идентификатор кодека/Подсказка           : XviD
Продолжительность                        : 1 ч. 49 м.
Битрейт                                  : 1778 Кбит/сек
Ширина                                   : 720 пикселей
Высота                                   : 304 пикселя
Соотношение сторон                       : 2,35:1
Частота кадров                           : 23,976 кадра/сек
Цветовое пространство                    : YUV
Субдискретизация насыщенности            : 4:2:0
Битовая глубина                          : 8 бит
Тип развёртки                            : Прогрессивная
Метод сжатия                             : С потерями
Бит/(Пиксели*Кадры)                      : 0.339
Размер потока                            : 1,36 Гбайт (66%)
Библиотека кодирования                   : XviD 1.2.1 (UTC 2008-12-04)

Аудио #1
Идентификатор                            : 1
Формат                                   : AC-3
Формат/Информация                        : Audio Coding 3
Расширение режима                        : CM (complete main)
Идентификатор кодека                     : 2000
Продолжительность                        : 1 ч. 49 м.
Вид битрейта                             : Постоянный
Битрейт                                  : 448 Кбит/сек
Каналы                                   : 6 каналов
Расположение каналов                     : Front: L C R, Side: L R, LFE
Частота                                  : 48,0 КГц
Битовая глубина                          : 16 бит
Метод сжатия                             : С потерями
Задержка видео                           : 680 мс.
Размер потока                            : 351 Мбайт (17%)
Выравнивание                             : Разделение по промежуткам
Продолжительность промежутка             : 42  мс. (1,00 видеокадр)
Время предзагрузки промежутка            : 500  мс.

Аудио #2
Идентификатор                            : 2
Формат                                   : AC-3
Формат/Информация                        : Audio Coding 3
Расширение режима                        : CM (complete main)
Идентификатор кодека                     : 2000
Продолжительность                        : 1 ч. 49 м.
Вид битрейта                             : Постоянный
Битрейт                                  : 448 Кбит/сек
Каналы                                   : 6 каналов
Расположение каналов                     : Front: L C R, Side: L R, LFE
Частота                                  : 48,0 КГц
Битовая глубина                          : 16 бит
Метод сжатия                             : С потерями
Размер потока                            : 351 Мбайт (17%)
Выравнивание                             : Разделение по промежуткам
Продолжительность промежутка             : 42  мс. (1,00 видеокадр)
Время предзагрузки промежутка            : 500  мс.

Скриншоты:




Время раздачи: До 10-15 скачавших




У вас нет необходимых прав для просмотра вложений в этом сообщении.


Вернуться к началу
 Профиль  
Ответить с цитатой  
  • Торрент
Автор: NewsRbk Хэш: ---
Добавлен: 2018-09-25 12:46 Приватный: Нет (DHT включён)
Статус:
---
Размер: 2.06 ГБ (2 213 593 088 байт)
Изменил:
---
Скачали: 0 (Раздающих: 0%)
Причина:
---
Здоровье: ???%
Сидеров: 0 Личеров: 1
Скорость раздачи: 0 байт/сек Скорость скачивания: 0 байт/сек
Последний сидер: Нет Последний личер: 6 часов 11 минут 48 секунд назад
Для скачивания торрента необходимо зарегистрироваться или войти на трекер.
Показать сообщения за:  Поле сортировки  
Начать новую тему Ответить на тему  [ 1 сообщение ] 

Часовой пояс: UTC + 3 часа


Кто сейчас на конференции

Сейчас этот форум просматривают: нет зарегистрированных пользователей и гости: 1


Вы не можете начинать темы
Вы не можете отвечать на сообщения
Вы не можете редактировать свои сообщения
Вы не можете удалять свои сообщения
Вы не можете добавлять вложения

Найти:
Перейти:  
cron
Переместиться наверх
cron