Часовой пояс: UTC + 3 часа




Начать новую тему Ответить на тему  [ 1 сообщение ] 
Автор Сообщение
СообщениеДобавлено: 2014-03-30 20:12 
Не в сети
Аватара пользователя
Раздал: 7.39 ГБ
Скачал: 410.09 МБ
Ратио: 18.440


Зарегистрирован: 2013-03-13 21:22
Сообщения: 8121
Музыкальный момент

#777
Жанр: Фильм-балет
Год выпуска: 1913
Продолжительность: 0:05:45

Режиссёр: Яков Протазанов

В ролях: Екатерина Гельцер, Василий Тихомиров.

Описание: Хореографический этюд на музыку Франца Шуберта.

Доп. информация: 1 часть, 150 метров.
В. Короткий отнёс фильм к "протожанру музыкальных фильмов".
Фильм сохранился не полностью.

Качество видео: неизвестно
Формат видео: AVI

Видео: 640x360 (1.78:1), 25 fps, Microsoft MPEG-4 Video Codec V2 ~754 kbps avg, 0.13 bit/pixel
Аудио: 44.100 kHz, MPEG Layer 3, 2 ch, ~96.00 kbps avg


General
Complete name : D:\Users\Ирина\Desktop\Moment Musical.avi
Format : AVI
Format/Info : Audio Video Interleave
File size : 35.5 MiB
Duration : 5mn 45s
Overall bit rate : 861 Kbps
Writing application : Lavf52.46.0

Video
ID : 0
Format : MPEG-4 Visual
Codec ID : MP42
Codec ID/Info : Microsoft MPEG-4 v2 (pre-standard)
Codec ID/Hint : Microsoft
Duration : 5mn 44s
Bit rate : 755 Kbps
Width : 640 pixels
Height : 360 pixels
Display aspect ratio : 16:9
Frame rate : 25.000 fps
Compression mode : Lossy
Bits/(Pixel*Frame) : 0.131
Stream size : 31.0 MiB (87%)

Audio
ID : 1
Format : MPEG Audio
Format version : Version 1
Format profile : Layer 3
Mode : Joint stereo
Mode extension : MS Stereo
Codec ID : 55
Codec ID/Hint : MP3
Duration : 5mn 45s
Bit rate mode : Constant
Bit rate : 96.0 Kbps
Channel(s) : 2 channels
Sampling rate : 44.1 KHz
Compression mode : Lossy
Stream size : 3.96 MiB (11%)
Alignment : Aligned on interleaves
Interleave, duration : 26 ms (0.65 video frame)
Writing library : LAME3.98.2






У вас нет необходимых прав для просмотра вложений в этом сообщении.


Вернуться к началу
 Профиль  
Ответить с цитатой  
  • Торрент
Автор: NewsRbk Хэш: ---
Добавлен: 2014-03-30 20:11 Приватный: Нет (DHT включён)
Статус:
---
Размер: 35.49 МБ (37 216 446 байт)
Изменил:
---
Скачали: 0 (Раздающих: 0%)
Причина:
---
Здоровье: 0%
Сидеров: 0 Личеров: 0
Скорость раздачи: 0 байт/сек Скорость скачивания: 0 байт/сек
Последний сидер: Нет Последний личер: Нет
Для скачивания торрента необходимо зарегистрироваться или войти на трекер.
Показать сообщения за:  Поле сортировки  
Начать новую тему Ответить на тему  [ 1 сообщение ] 

Часовой пояс: UTC + 3 часа


Кто сейчас на конференции

Сейчас этот форум просматривают: нет зарегистрированных пользователей и гости: 2


Вы не можете начинать темы
Вы не можете отвечать на сообщения
Вы не можете редактировать свои сообщения
Вы не можете удалять свои сообщения
Вы не можете добавлять вложения

Найти:
Перейти:  
cron
Переместиться наверх