Часовой пояс: UTC + 3 часа




Начать новую тему Ответить на тему  [ 1 сообщение ] 
Автор Сообщение
СообщениеДобавлено: 2014-05-01 14:53 
Не в сети
Администратор
Администратор
Аватара пользователя
Раздал: 51.58 ТБ
Скачал: 620.08 ГБ
Ратио: 85.182


Зарегистрирован: 2010-11-09 02:24
Сообщения: 44655
Откуда: Земля Санникова
Приглашение к жизни (2 серии)#777
Название театра: Ленинградский театр драмы им. А.С.Пушкина - Александринский театр.
Жанр: драма, экранизация.
Год выпуска: 1981.
Продолжительность: 01:16:40 + 01:08:00 (02:24:40).
Режиссеры: Илья Ольшвангер.
В ролях:
Вихров - народный артист СССР Александр Борисов,
Вихров, студент - Геннадий Судаков,
Грацианский - народный артист Грузинской ССР, народный артист России Ефим Байковский,
Грацианский, студент - народный артист РСФСР Юрий Родионов,
Поля - Ольга Калмыкова,
Золотинская - народная артистка РСФСР Ольга Лебзак,
Наташа Золотинская - Наталия Лебзак,
Таисия - Клавдия Трофимова,
Мать Грацианского - М. Можаева,
Чередилов - заслуженный артист РСФСР Борис Самошин,
Чередилов, студент - И.Семенов,
Остминов - Владимир Никонов,
Чик - заслуженный артист РСФСР Марк Никельберг,
Староста - народный артист РСФСР Александр Соколов,
Сапожников - Валерий Куксин,
Комсомольский работник - заслуженная артистка России Мария Кузнецова,
Немецкий офицер - заслуженный артист РСФСР Алексей Ян,
Чандвецкий - народный артист СССР Рэм Лебедев,
Эмма - заслуженная артистка РСФСР Валентина Панина,
Купец - Виталий Ильин
Ведущий от театра - Алексей Минин.
Описание:
По мотивам романа Леонида Леонова "Русский лес" в постановке Ленинградского государственного академического театра драмы имени А.С. Пушкина.
Об ученом-лесоводе Иване Вихрове, его дочери, друзьях и недругах.

Дополнительная информация:
Страна: СССР .
Выпущено: Центральное телевидение.
Режиссер-постановщик спектакля: Леонид Леонов.
Композитор: народный артист СССР Дмитрий Шостакович.
Художник: Март Китаев.


Релиз

Качество: TVRip
Формат: AVI
Видео:..688x512 (1.34:1), 25 fps, XviD MPEG-4 ~1303 kbps avg, 0.15 bit/pixel
Аудио:..48 kHz, MPEG Layer 3, 2 ch, ~128.00 kbps avg (тех.данные в обеих сериях одинаковы)
Отчет Media Info
1-я серия
Общее
Полное имя : Priglashenie.k.zhizni.(2-e.serii.iz.2).1981.XviD.TVRip.fenixclub\Priglashenie.k.zhizni.(1-ya.seriya.iz.2).1981.XviD.TVRip.fenixclub.avi
Format : AVI
Format/Info : Audio Video Interleave
File size : 790 MiB
Duration : 1h 16mn
Overall bit rate : 1 441 Kbps
Writing application : VirtualDubModRus 1.5.10.2 (build 2542/release)
Writing library : VirtualDubMod build 2542/release
Video
ID : 0
Format : MPEG-4 Visual
Format profile : Advanced Simple@L5
Format settings, BVOP : 2
Format settings, QPel : No
Format settings, GMC : No warppoints
Format settings, Matrix : Default (MPEG)
Muxing mode : Packed bitstream
Codec ID : XVID
Codec ID/Hint : XviD
Duration : 1h 16mn
Bit rate : 1 303 Kbps
Width : 688 pixels
Height : 512 pixels
Display aspect ratio : 4:3
Frame rate : 25.000 fps
Color space : YUV
Chroma subsampling : 4:2:0
Bit depth : 8 bits
Scan type : Progressive
Compression mode : Lossy
Bits/(Pixel*Frame) : 0.148
Stream size : 715 MiB (90%)
Writing library : XviD 1.2.1 (UTC 2008-12-04)
Audio
ID : 1
Format : MPEG Audio
Format version : Version 1
Format profile : Layer 3
Codec ID : 55
Codec ID/Hint : MP3
Duration : 1h 16mn
Bit rate mode : Constant
Bit rate : 128 Kbps
Channel(s) : 2 channels
Sampling rate : 48.0 KHz
Compression mode : Lossy
Stream size : 70.2 MiB (9%)
Alignment : Aligned on interleaves
Interleave, duration : 40 ms (1.00 video frame)
Interleave, preload duration : 504 ms
Writing library : LAME3.99r
Encoding settings : -m s -V 4 -q 5 -lowpass 17 -b 128
2-я серия
Общее
Полное имя : Priglashenie.k.zhizni.(2-e.serii.iz.2).1981.XviD.TVRip.fenixclub\Priglashenie.k.zhizni.(2-ya.seriya.iz.2).1981.XviD.TVRip.fenixclub.avi
Format : AVI
Format/Info : Audio Video Interleave
File size : 702 MiB
Duration : 1h 8mn
Overall bit rate : 1 442 Kbps
Writing application : VirtualDubModRus 1.5.10.2 (build 2542/release)
Writing library : VirtualDubMod build 2542/release
Video
ID : 0
Format : MPEG-4 Visual
Format profile : Advanced Simple@L5
Format settings, BVOP : 2
Format settings, QPel : No
Format settings, GMC : No warppoints
Format settings, Matrix : Default (MPEG)
Muxing mode : Packed bitstream
Codec ID : XVID
Codec ID/Hint : XviD
Duration : 1h 8mn
Bit rate : 1 305 Kbps
Width : 688 pixels
Height : 512 pixels
Display aspect ratio : 4:3
Frame rate : 25.000 fps
Color space : YUV
Chroma subsampling : 4:2:0
Bit depth : 8 bits
Scan type : Progressive
Compression mode : Lossy
Bits/(Pixel*Frame) : 0.148
Stream size : 635 MiB (90%)
Writing library : XviD 1.2.1 (UTC 2008-12-04)
Audio
ID : 1
Format : MPEG Audio
Format version : Version 1
Format profile : Layer 3
Codec ID : 55
Codec ID/Hint : MP3
Duration : 1h 8mn
Bit rate mode : Constant
Bit rate : 128 Kbps
Channel(s) : 2 channels
Sampling rate : 48.0 KHz
Compression mode : Lossy
Stream size : 62.3 MiB (9%)
Alignment : Aligned on interleaves
Interleave, duration : 40 ms (1.00 video frame)
Interleave, preload duration : 504 ms
Writing library : LAME3.99r
Encoding settings : -m s -V 4 -q 5 -lowpass 17 -b 128

Скриншоты


Альтернативный хост






У вас нет необходимых прав для просмотра вложений в этом сообщении.

_________________


Вернуться к началу
 Профиль  
Ответить с цитатой  
  • Торрент
Автор: oartemka178 Хэш: ---
Добавлен: 2014-05-01 14:53 Приватный: Нет (DHT включён)
Статус:
---
Размер: 1.46 ГБ (1 564 174 336 байт)
Изменил:
---
Скачали: 0 (Раздающих: 0%)
Причина:
---
Здоровье: 0%
Сидеров: 0 Личеров: 0
Скорость раздачи: 0 байт/сек Скорость скачивания: 0 байт/сек
Последний сидер: Нет Последний личер: Нет
Для скачивания торрента необходимо зарегистрироваться или войти на трекер.
Показать сообщения за:  Поле сортировки  
Начать новую тему Ответить на тему  [ 1 сообщение ] 

Часовой пояс: UTC + 3 часа


Кто сейчас на конференции

Сейчас этот форум просматривают: нет зарегистрированных пользователей и гости: 1


Вы не можете начинать темы
Вы не можете отвечать на сообщения
Вы не можете редактировать свои сообщения
Вы не можете удалять свои сообщения
Вы не можете добавлять вложения

Найти:
Перейти:  
Переместиться наверх