Часовой пояс: UTC + 3 часа




Начать новую тему Ответить на тему  [ 1 сообщение ] 
Автор Сообщение
СообщениеДобавлено: 2014-05-01 14:53 
Не в сети
Администратор
Администратор
Аватара пользователя
Раздал: 51.58 ТБ
Скачал: 620.08 ГБ
Ратио: 85.182


Зарегистрирован: 2010-11-09 02:24
Сообщения: 44604
Откуда: Земля Санникова
Хлестаков

#777

Название театра: Театр им. К. С. Станиславского
Жанр: комедия
Год выпуска: 1996
Продолжительность: 02:33:02

Режиссёр: Лауреат Государственной премии России Владимир Мирзоев.

В ролях: Максим Суханов, Владимир Симонов, Владимир Коренев, Юлия Рутберг, Жанна Эппле, Александр Пантелеев, Владимир Сажин, Владимир Скворцов, Виктор Рудниченко, Артём Кретов, Андрей Гусев, Виктория Толстоганова, Наталья Орлова, Татьяна Майст, Наталья Каширина

Описание: Сценическая версия комедии «Ревизор»
ПРЕМЬЕРА 1996 года
Н.В. Гоголь Х Л Е С Т А К О В
Необычный взгляд на знакомую с детства пьесу. Режиссер с оригинальным, только ему присущим стилем, Владимир Мирзоев превращает гоголевский мир уездного городка в небытовое, мистическое пространство, а его обитателей – в странных существ, подчиняющихся таинственным законам бытия. Реалистическая комедия раскрывается как мистерия и фарс, пугающий и невероятно смешной, в центре которого – Хлестаков – фантом, меняющийся и неуловимый, рожденный страхами и желаниями обывателей.
Доп. информация: любительская съёмка
Качество видео: VHSRip
Формат видео: AVI
Видео кодек: DivX
Аудио кодек: MP3
Видео: 720x576 (1.25:1), 25fps, Divx 5.0, 1301 kbps
Аудио: 44.1 KHz, MPEG Layer 3, 1 ch., 128 kbps

General
Complete name:Xlestakov.avi
Format: DivX
Format/Info: Hack of AVI
File size: 1.54 GiB
Duration: 2h 33mn
Overall bit rate: 1 438 Kbps
Video
Format: MPEG-4 Visual
Format settings, BVOP : Yes
Format settings, QPel : No
Format settings, GMC : No warppoints
Format settings, Matrix : Default (H.263)
Muxing mode : Packed bitstream
Codec ID : DX50
Codec ID/Hint : DivX 5
Duration : 2h 33mn
Bit rate : 1 301 Kbps
Width : 720 pixels
Height : 576 pixels
Display aspect ratio : 5/4
Frame rate : 25.000 fps
Standard : PAL
Resolution : 24 bits
Colorimetry : 4:2:0
Scan type : Progressive
Bits/(Pixel*Frame) : 0.125
Stream size : 1.39 GiB (90%)
Writing library : DivX 2682
Audio
ID : 1
Format : MPEG Audio
Format version : Version 1
Format profile : Layer 3
Codec ID : 55
Codec ID/Hint : MP3
Duration : 2h 33mn
Bit rate mode : Constant
Bit rate : 128 Kbps
Channel(s) : 1 channel
Sampling rate : 44.1 KHz
Resolution : 16 bits
Stream size : 140 MiB (9%)
Alignment : Split accross interleaves
Interleave, duration : 40 ms (1.00 video frame)
Interleave, preload duration : 500 ms

Сэмпл

Скриншоты








У вас нет необходимых прав для просмотра вложений в этом сообщении.

_________________


Вернуться к началу
 Профиль  
Ответить с цитатой  
  • Торрент
Автор: oartemka178 Хэш: ---
Добавлен: 2014-05-01 14:53 Приватный: Нет (DHT включён)
Статус:
---
Размер: 1.54 ГБ (1 650 798 768 байт)
Изменил:
---
Скачали: 0 (Раздающих: 0%)
Причина:
---
Здоровье: 0%
Сидеров: 0 Личеров: 0
Скорость раздачи: 0 байт/сек Скорость скачивания: 0 байт/сек
Последний сидер: Нет Последний личер: Нет
Для скачивания торрента необходимо зарегистрироваться или войти на трекер.
Показать сообщения за:  Поле сортировки  
Начать новую тему Ответить на тему  [ 1 сообщение ] 

Часовой пояс: UTC + 3 часа


Кто сейчас на конференции

Сейчас этот форум просматривают: нет зарегистрированных пользователей и гости: 1


Вы не можете начинать темы
Вы не можете отвечать на сообщения
Вы не можете редактировать свои сообщения
Вы не можете удалять свои сообщения
Вы не можете добавлять вложения

Найти:
Перейти:  
cron
Переместиться наверх