Часовой пояс: UTC + 3 часа




Начать новую тему Ответить на тему  [ 1 сообщение ] 
Автор Сообщение
 Заголовок сообщения: Страсти по мясу / Love Meatender (2011) HDTVRip
СообщениеДобавлено: 2015-02-07 11:59 
Не в сети
Администратор
Администратор
Аватара пользователя
Раздал: 1.21 ТБ
Скачал: 0 байт
Ратио: Seed.


Зарегистрирован: 2014-03-16 00:45
Сообщения: 2162
Страсти по мясу / Love Meatender (2011) HDTVRip

#777
Телекомпания: 24 Doc
Выпущено: Бельгия
Жанр: Документальный

Описание:
Человечество потребляет огромное количество мяса. Результатом стало загрязнение окружающей среды, истощение природных ресурсов, глобальное потепление: планета платит высокую цену за наши аппетиты. Для человеческого организма такое потребление мяса тоже не проходит бесследно; среди последствий ожирение, некоторые виды рака, сопротивляемость антибиотикам. Фильм создает абсолютно новый образ такого знакомого нам всем продукта.


Режиссер: Ману Коэман

Продолжительность: 00:51:58
Качество видео: HDTVRip

Перевод: Многоголосый закадровый, профессиональный

Видеокодек: Xvid
Битрейт видео: ~1535 кб/с
Размер кадра: 720х400
Аудиокодек: AC3, 2ch
Битрейт аудио: 192 Кбит/с
Общее
Полное имя : F:\видео\фильмы\Страсти по мясу.2011.SATRip..avi
Полное имя : F:\видео\фильмы\Страсти по мясу.2011.SATRip..avi Формат : AVI
Формат : AVI Формат/Информация : Audio Video Interleave
Формат/Информация : Audio Video Interleave Размер файла : 646 Мбайт
Размер файла : 646 Мбайт Продолжительность : 51 м.
Продолжительность : 51 м. Общий поток : 1737 Кбит/сек
Общий поток : 1737 Кбит/сек Программа кодирования : VirtualDubMod 1.5.10.3 | www.virtualdub-fr.org || (build 2550/release)
Программа кодирования : VirtualDubMod 1.5.10.3 | www.virtualdub-fr.org || (build 2550/release) Библиотека кодирования : VirtualDubMod build 2550/release
Библиотека кодирования : VirtualDubMod build 2550/release
Видео
Идентификатор : 0
Идентификатор : 0 Формат : MPEG-4 Visual
Формат : MPEG-4 Visual Профиль формата : Advanced Simple@L5
Профиль формата : Advanced Simple@L5 Параметр BVOP формата : 1
Параметр BVOP формата : 1 Параметр QPel формата : Нет
Параметр QPel формата : Нет Параметр GMC формата : Без точки перехода
Параметр GMC формата : Без точки перехода Параметр матрицы формата : Выборочная
Параметр матрицы формата : Выборочная Идентификатор кодека : XVID
Идентификатор кодека : XVID Идентификатор кодека/Подсказка : XviD
Идентификатор кодека/Подсказка : XviD Продолжительность : 51 м.
Продолжительность : 51 м. Битрейт : 1536 Кбит/сек
Битрейт : 1536 Кбит/сек Ширина : 720 пикселей
Ширина : 720 пикселей Высота : 400 пикселей
Высота : 400 пикселей Соотношение сторон : 16:9
Соотношение сторон : 16:9 Частота кадров : 25,000 кадров/сек
Частота кадров : 25,000 кадров/сек Цветовое пространство : YUV
Цветовое пространство : YUV Субдискретизация насыщенности : 4:2:0
Субдискретизация насыщенности : 4:2:0 Битовая глубина : 8 бит
Битовая глубина : 8 бит Тип развёртки : Прогрессивная
Тип развёртки : Прогрессивная Метод сжатия : С потерями
Метод сжатия : С потерями Бит/(Пиксели*Кадры) : 0.213
Бит/(Пиксели*Кадры) : 0.213 Размер потока : 571 Мбайт (88%)
Размер потока : 571 Мбайт (88%) Библиотека кодирования : XviD 73
Библиотека кодирования : XviD 73
Аудио
Идентификатор : 1
Идентификатор : 1 Формат : AC-3
Формат : AC-3 Формат/Информация : Audio Coding 3
Формат/Информация : Audio Coding 3 Расширение режима : CM (complete main)
Расширение режима : CM (complete main) Параметр Endianness формата : Big
Параметр Endianness формата : Big Идентификатор кодека : 2000
Идентификатор кодека : 2000 Продолжительность : 51 м.
Продолжительность : 51 м. Вид битрейта : Постоянный
Вид битрейта : Постоянный Битрейт : 192 Кбит/сек
Битрейт : 192 Кбит/сек Каналы : 2 канала
Каналы : 2 канала Расположение каналов : Front: L R
Расположение каналов : Front: L R Частота : 48,0 КГц
Частота : 48,0 КГц Битовая глубина : 16 бит
Битовая глубина : 16 бит Метод сжатия : С потерями
Метод сжатия : С потерями Размер потока : 71,4 Мбайт (11%)
Размер потока : 71,4 Мбайт (11%) Выравнивание : Разделение по промежуткам
Выравнивание : Разделение по промежуткам Продолжительность промежутка : 40 мс. (1,00 видеокадр)
Продолжительность промежутка : 40 мс. (1,00 видеокадр) Время предзагрузки промежутка : 500 мс.
Время предзагрузки промежутка : 500 мс.
Скриншоты:


У вас нет необходимых прав для просмотра вложений в этом сообщении.


Вернуться к началу
 Профиль  
Ответить с цитатой  
  • Торрент
Автор: Consultants Хэш: ---
Добавлен: 2015-02-07 12:00 Приватный: Нет (DHT включён)
Статус:
---
Размер: 645.84 МБ (677 208 064 байт)
Изменил:
---
Скачали: 1 (Раздающих: 0%)
Причина:
---
Здоровье: 0%
Сидеров: 0 Личеров: 0
Скорость раздачи: 0 байт/сек Скорость скачивания: 0 байт/сек
Последний сидер: Нет Последний личер: Нет
Для скачивания торрента необходимо зарегистрироваться или войти на трекер.
Показать сообщения за:  Поле сортировки  
Начать новую тему Ответить на тему  [ 1 сообщение ] 

Часовой пояс: UTC + 3 часа


Кто сейчас на конференции

Сейчас этот форум просматривают: нет зарегистрированных пользователей и гости: 1


Вы не можете начинать темы
Вы не можете отвечать на сообщения
Вы не можете редактировать свои сообщения
Вы не можете удалять свои сообщения
Вы не можете добавлять вложения

Найти:
Перейти:  
Переместиться наверх