Часовой пояс: UTC + 3 часа




Начать новую тему Ответить на тему  [ 1 сообщение ] 
Автор Сообщение
СообщениеДобавлено: 2014-06-07 19:03 
Не в сети
Администратор
Администратор
Аватара пользователя
Раздал: 51.58 ТБ
Скачал: 620.08 ГБ
Ратио: 85.182


Зарегистрирован: 2010-11-09 02:24
Сообщения: 44628
Откуда: Земля Санникова



Потолок / На грани / On The Edge

#777
Производство: Россия
Год выпуска: 2011
Жанр: Документальный

Режиссер: Наталья Углицких

Участники: Наталья Авсеенко, Виктор Лягушкин, Иван Кронберг, белухи Нильма и Матрена.

Описание:
У двукратной рекордсменки мира по фридайвенгу есть мечта: понырять с белухами под льдами Белого моря. В экспедицию на Полярный круг, вместе с Натальей, отправляется подводный фотохудожник, для того, чтоб запечатлеть ее мечту на фото. Наталья решается погрузиться под льды без гидрокостюма. Она хочет остаться один на один с природой, не создавая для себя искусственно комфортных условий.
Борьба с холодом, страхом и другими сложностями, с которыми сталкивается героиня, показывает силу духа и невероятные возможности человека.
Фильм-исследование о том, что нужно пройти, для того, чтоб мечта стала явью.



Продолжительность: 00:37:32
Качество видео: WEB-DL

Видео: 720x400 (1.80:1), 25 fps, XviD build 50 ~2032 kbps avg, 0.28 bit/pixel
Аудио: 48 kHz, AC3 Dolby Digital, 2/0 (L,R) ch, ~192 kbps
General
Complete name : D:\Public\Potolok.2011.avi
Format : AVI
Format/Info : Audio Video Interleave
File size : 600 MiB
Duration : 37mn 32s
Overall bit rate : 2 235 Kbps
Writing application : VirtualDubMod 1.5.10.2 (build 2540/release)
Writing library : VirtualDubMod build 2540/release

Video
ID : 0
Format : MPEG-4 Visual
Format profile : Advanced Simple@L5
Format settings, BVOP : 1
Format settings, QPel : No
Format settings, GMC : No warppoints
Format settings, Matrix : Default (MPEG)
Codec ID : XVID
Codec ID/Hint : XviD
Duration : 37mn 32s
Bit rate : 2 033 Kbps
Width : 720 pixels
Height : 400 pixels
Display aspect ratio : 16:9
Frame rate : 25.000 fps
Color space : YUV
Chroma subsampling : 4:2:0
Bit depth : 8 bits
Scan type : Progressive
Compression mode : Lossy
Bits/(Pixel*Frame) : 0.282
Stream size : 546 MiB (91%)
Writing library : XviD 1.2.1 (UTC 2008-12-04)

Audio
ID : 1
Format : AC-3
Format/Info : Audio Coding 3
Mode extension : CM (complete main)
Codec ID : 2000
Duration : 37mn 32s
Bit rate mode : Constant
Bit rate : 192 Kbps
Channel(s) : 2 channels
Channel positions : Front: L R
Sampling rate : 48.0 KHz
Bit depth : 16 bits
Compression mode : Lossy
Stream size : 51.6 MiB (9%)
Alignment : Split accross interleaves
Interleave, duration : 40 ms (1.00 video frame)
Interleave, preload duration : 500 ms
Скриншоты:



У вас нет необходимых прав для просмотра вложений в этом сообщении.

_________________


Вернуться к началу
 Профиль  
Ответить с цитатой  
  • Торрент
Автор: oartemka178 Хэш: ---
Добавлен: 2014-06-07 19:03 Приватный: Нет (DHT включён)
Статус:
---
Размер: 600.12 МБ (629 272 576 байт)
Изменил:
---
Скачали: 0 (Раздающих: 0%)
Причина:
---
Здоровье: 0%
Сидеров: 0 Личеров: 0
Скорость раздачи: 0 байт/сек Скорость скачивания: 0 байт/сек
Последний сидер: Нет Последний личер: Нет
Для скачивания торрента необходимо зарегистрироваться или войти на трекер.
Показать сообщения за:  Поле сортировки  
Начать новую тему Ответить на тему  [ 1 сообщение ] 

Часовой пояс: UTC + 3 часа


Кто сейчас на конференции

Сейчас этот форум просматривают: нет зарегистрированных пользователей и гости: 1


Вы не можете начинать темы
Вы не можете отвечать на сообщения
Вы не можете редактировать свои сообщения
Вы не можете удалять свои сообщения
Вы не можете добавлять вложения

Найти:
Перейти:  
cron
Переместиться наверх