Часовой пояс: UTC + 3 часа




Начать новую тему Ответить на тему  [ 1 сообщение ] 
Автор Сообщение
СообщениеДобавлено: 2014-10-31 00:01 
Не в сети
Администратор
Администратор
Аватара пользователя
Раздал: 51.58 ТБ
Скачал: 620.08 ГБ
Ратио: 85.182


Зарегистрирован: 2010-11-09 02:24
Сообщения: 44625
Откуда: Земля Санникова
Древние пришельцы / Ancient Aliens


#777
Год выпуска: 2013-2014
Страна: США
Жанр: Документальный, паранормальный, уфология, мистика
Продолжительность: 17x45минут
Перевод: Двухголосый закадровый
Русские субтитры: нет

Режиссер: Кевин Бёрнс / Kevin Burns

Телеканал: History Channel
Описание: Возможно ли, что разумные формы жизни посетили Землю тысячи лет назад, принеся с собой технологии кардинально повлиявшие на ход истории и развития человечества? Теория "древних пришельцев", опубликованная в 1968 году в бестселлере Эриха фон Деникена "Колесницы богов", пошатнула представления людей об общеизвестном прогрессе человечества. Древние пещерные рисунки странных существ, остатки взлетно-посадочных полос в Перу, индийские тексты, описывающие "летающие машины богов"... вот лишь некоторые необычные археологические артефакты на которые ссылается Деникен в качестве доказательств того, что "древние астронавты" были хорошо известны нашим предкам...

качество: HDTVRip
формат: AVI
Видео: XVID, 720 x 400(16:9), ~1800 kb/s, 25 fps
Аудио: AC-3, 48.0 KHz, 192 kb/s, 2ch

Сэмпл: https://yadi.sk/i/AQvWBtYrbpBeG или зеркало

Список выпусков/серий
01. Сила Троицы / The Power of Three
02. Хрустальные черепа / The Crystal Skulls
03. Связь с аннунаками / The Anunnaki Connection
04. Магия богов / Magic of the Gods
05. Заговор Сатаны / The Satan Conspiracy
06. Звёздные лекари / Alien Operations
07. Императоры, цари и фараоны / Emperors Kings and Pharaohs
08. Мистические Реликвии / Mysterious Relics
09. Пришельцы и запретные острова / Aliens and Forbidden Islands
10. Пришельцы и утерянный ковчег / Aliens and The Lost Ark
11. Пришельцы и загадочные горы / Aliens and Mysterious Mountains
12. Пришельцы и "Звёздные врата" / Aliens and Stargates
13. Пришельцы в Америке / Aliens in America
14. Звездные дети / The Star Children
15. Сокровища богов / Treasures of the Gods
16. Пришельцы и Красная планета / Aliens and the Red Planet
17. Шаманы / The Shamans


отчет MediaInfo

Код:
Общее
Полное имя                               : C:\Users\Admin\Desktop\Ancient Aliens season 6 Древние пришельцы\Древние пришельцы (Сезон 6, серия 17) - Ancient Aliens (2014).avi
Формат                                   : AVI
Формат/Информация                        : Audio Video Interleave
Размер файла                             : 603 Мбайт
Продолжительность                        : 42 м.
Общий поток                              : 2001 Кбит/сек
Программа кодирования                    : VirtualDubMod 1.5.10.3 | www.virtualdub-fr.org || (build 2550/release)
Библиотека кодирования                   : VirtualDubMod build 2550/release

Видео
Идентификатор                            : 0
Формат                                   : MPEG-4 Visual
Профиль формата                          : Advanced Simple@L5
Параметр BVOP формата                    : 2
Параметр QPel формата                    : Нет
Параметр GMC формата                     : Без точки перехода
Параметр матрицы формата                 : Default (H.263)
Идентификатор кодека                     : XVID
Идентификатор кодека/Подсказка           : XviD
Продолжительность                        : 42 м.
Битрейт                                  : 1800 Кбит/сек
Ширина                                   : 720 пикселей
Высота                                   : 400 пикселей
Соотношение сторон                       : 16:9
Частота кадров                           : 25,000 кадров/сек
Цветовое пространство                    : YUV
Субдискретизация насыщенности            : 4:2:0
Битовая глубина                          : 8 бит
Тип развёртки                            : Прогрессивная
Метод сжатия                             : С потерями
Бит/(Пиксели*Кадры)                      : 0.250
Размер потока                            : 542 Мбайт (90%)
Библиотека кодирования                   : XviD 1.2.1 (UTC 2008-12-04)

Аудио
Идентификатор                            : 1
Формат                                   : AC-3
Формат/Информация                        : Audio Coding 3
Расширение режима                        : CM (complete main)
Параметр Endianness формата              : Big
Идентификатор кодека                     : 2000
Продолжительность                        : 42 м.
Вид битрейта                             : Постоянный
Битрейт                                  : 192 Кбит/сек
Каналы                                   : 2 канала
Расположение каналов                     : Front: L R
Частота                                  : 48,0 КГц
Битовая глубина                          : 16 бит
Метод сжатия                             : С потерями
Размер потока                            : 57,8 Мбайт (10%)
Выравнивание                             : Разделение по промежуткам
Продолжительность промежутка             : 40  мс. (1,00 видеокадр)
Время предзагрузки промежутка            : 500  мс.




Скриншоты






У вас нет необходимых прав для просмотра вложений в этом сообщении.


Вернуться к началу
 Профиль  
Ответить с цитатой  
  • Торрент
Автор: oartemka178 Хэш: ---
Добавлен: 2014-10-31 00:01 Приватный: Нет (DHT включён)
Статус:
---
Размер: 9.98 ГБ (10 711 227 096 байт)
Изменил:
---
Скачали: 0 (Раздающих: 0%)
Причина:
---
Здоровье: 0%
Сидеров: 0 Личеров: 0
Скорость раздачи: 0 байт/сек Скорость скачивания: 0 байт/сек
Последний сидер: Нет Последний личер: Нет
Для скачивания торрента необходимо зарегистрироваться или войти на трекер.
Показать сообщения за:  Поле сортировки  
Начать новую тему Ответить на тему  [ 1 сообщение ] 

Часовой пояс: UTC + 3 часа


Кто сейчас на конференции

Сейчас этот форум просматривают: нет зарегистрированных пользователей и гости: 1


Вы не можете начинать темы
Вы не можете отвечать на сообщения
Вы не можете редактировать свои сообщения
Вы не можете удалять свои сообщения
Вы не можете добавлять вложения

Найти:
Перейти:  
Переместиться наверх