Часовой пояс: UTC + 3 часа




Начать новую тему Ответить на тему  [ 1 сообщение ] 
Автор Сообщение
СообщениеДобавлено: 2014-03-24 01:29 
Не в сети
Аватара пользователя
Раздал: 7.39 ГБ
Скачал: 410.09 МБ
Ратио: 18.440


Зарегистрирован: 2013-03-13 21:22
Сообщения: 8121




КВН-2013. Премьер лига. 1.4 финала. Первая игра (2013.08.03) HDTV [H.264/1080i]

#777
Режиссер / Телекомпания: Первый канал
Русское название: КВН
Год выпуска: 2013
Жанр: Телепередача

Ведущий: Александр Масляков мл.

Описание:
Что такое КВН, знают, без сомнения, все. В КВН играют во всем мире, это прежде всего молодежная игра. Постоянные конкурсные задания: "Визитная карточка", "Разминка", "Конкурс капитанов", "Музыкальный конкурс", "Домашнее задание". Игру команд оценивает профессиональное жюри — люди, у которых с чувством юмора все в порядке, многие из них раньше сами играли в КВН. Среди членов жюри были Константин Эрнст, Леонид Парфенов, Юлий Гусман, Леонид Ярмольник, Валдис Пельш, Сергей Шолохов, Геннадий Хазанов и другие. Кроме самих игр проводятся ежегодные встречи: фестиваль команд КВН (с 1990 г., семь раз фестиваль проходил в г.Сочи), музыкальный фестиваль КВН, летний кубок КВН, международные товарищеские игры в КВН. Сборная КВН играет со сборными других стран. Уже состоялись игры между сборной КВН и сборными Америки, Австралии, Израиля... Игра в КВН для многих становится профессией, а многие благодаря игре связывают жизнь с искусством. Из КВН "вышли": Леонид Якубович, Михаил Марфин, Татьяна Лазарева, Олег Филимонов, Юлий Гусман и многие другие.

Команды:
- Молодежная сборная, Омск
- "Шизгара", пгт. Воскресенское
- Сборная МФЮА, Москва-Волгоград
- "Мисс Мира", Пенза
- Сборная Тамашоу, Бишкек
- Сборная Батайска "Малая земля"
- "Лас-Вегас", Энгельс

Продолжительность: 01:17:02

Видеокодек: MPEG-TS (AVC)
Битрейт видео: ~10,5 Мбит/сек
Размер кадра: 1920 x 1080
Качество видео: HDTV
Аудиокодек: MP2, 2ch.
Битрейт аудио: 224 kb/s
Формат : MPEG-TS
Размер файла : 6,06 Гбайт
Продолжительность : 1 ч. 17 м.
Общий поток : 11,3 Мбит/сек

Видео
Идентификатор : 1902 (0x76E)
Идентификатор меню : 1 (0x1)
Формат : AVC
Формат/Информация : Advanced Video Codec
Профиль формата : [url=mailto:High@L4.0]High@L4.0[/url]
Параметр CABAC формата : Да
Параметр ReFrames формата : 3 кадра
Параметр GOP формата : M=3, N=24
Идентификатор кодека : 27
Продолжительность : 1 ч. 17 м.
Битрейт : 10,5 Мбит/сек
Ширина : 1920 пикселей
Высота : 1080 пикселей
Соотношение сторон : 16:9
Частота кадров : 25,000 кадров/сек
Стандарт вещания : Component
Цветовое пространство : YUV
Субдискретизация насыщенности : 4:2:0
Битовая глубина : 8 бит
Тип развёртки : Чересстрочная
Порядок развёртки : Верхнее поле первое
Бит/(Пиксели*Кадры) : 0.202
Размер потока : 5,64 Гбайт (93%)
Основные цвета : BT.709-5, BT.1361, IEC 61966-2-4, SMPTE RP177
Характеристики трансфера : BT.709-5, BT.1361
Коэффициенты матрицы : BT.709-5, BT.1361, IEC 61966-2-4 709, SMPTE RP177

Аудио
Идентификатор : 2902 (0xB56)
Идентификатор меню : 1 (0x1)
Формат : MPEG Audio
Версия формата : Version 1
Профиль формата : Layer 2
Идентификатор кодека : 3
Продолжительность : 1 ч. 17 м.
Вид битрейта : Постоянный
Битрейт : 224 Кбит/сек
Каналы : 2 канала
Частота : 48,0 КГц
Метод сжатия : С потерями
Размер потока : 123 Мбайт (2%)
Язык : Russian

Текст
Идентификатор : 33 (0x21)-888
Идентификатор меню : 1 (0x1)
Формат : Teletext Subtitle
Язык : Russian
Тема сезона: Игра без границ

Жюри: Ольга Картункова, Иван Пышненко, Азамат Мусагалиев, Евгений Донских, Сергей Писаренко

Приветствие: Кто не рискует
Лас-Вегас:
- музыкальные подарки жюри
- парень выполнил всё к 18 годам
- Людовик XIV не может уличить жену в измене
- мафиози в Чикаго
- уроки в Гнесинке в будущем
Сборная Тамашоу:
- названия Кыргызов
- авария Камаза и Матиза
- девушка в очень длинной и узкой юбке спешит на учёбу
- в бишкекском океанариуме
- очень стеснительная девушка перед парнями
- в московской пробке
- вратарь сборной Кыргызстана на матче с Бразилией
Шизгара:
- народная мудрость
- что есть в Воскресенком
- конкурс мокрых маек
- деревня невоспитанная
- набор новой команды
Малая земля:
- техподдержка водки
- в кабинете самого влиятельного в мире человека
Молодежная сборная:
- БОМЖ попал в средневековье
- на остановке
- в очень самостоятельной семье
- человек, которому официально разрешено воровать
- охранник плотно поел и удобно сел
- в маршрутке
- пришествие на ЕГЭ
- жалоба мэру
Мисс Мира:
- красивая женская команда
- мужской кодекс правил
- крутая женская команда
Сборная МФЮА:
- поддержка проректора
- скандал молодой семьи
- самые трусливые инкассаторы
- очень сильная стюардесса
- в школе
- работа ОМОНа в праздники
- японское "Что? Где? Когда?"

Биатлон:
Вторым конкурсом традиционно стал классический биатлон. В первой игре на вылет команды уходили целыми пачками, ведь в этой игре их целых семь. Несколько дополнительных шрафных кругов справедливо выявили достойных своих баллов.

Фристайл: Своя игра
Молодежная сборная:
- свои игры в детстве
Малая земля:
- ночью перед свадьбой, если бы мужчины к свадьбе относились, как женщины
Лас-Вегас:
- лаборатория по изучению влияния музыки на человека
Сборная МФЮА:
- в раздевалке любимой футбольной команды после проигрыша
Мисс Мира:
- гусары в городе
Сборная Тамашоу:
- серенада девушке
Шизгара:
- оборона от остальных городов
Скриншоты:

Время раздачи: 24/7. До первых 5 скачавших.
Rip by Shuriman
КВН на NoNaMe Club


У вас нет необходимых прав для просмотра вложений в этом сообщении.


Вернуться к началу
 Профиль  
Ответить с цитатой  
  • Торрент
Автор: NewsRbk Хэш: ---
Добавлен: 2014-03-24 01:20 Приватный: Нет (DHT включён)
Статус:
---
Размер: 6.06 ГБ (6 511 045 360 байт)
Изменил:
---
Скачали: 0 (Раздающих: 0%)
Причина:
---
Здоровье: 0%
Сидеров: 0 Личеров: 0
Скорость раздачи: 0 байт/сек Скорость скачивания: 0 байт/сек
Последний сидер: Нет Последний личер: Нет
Для скачивания торрента необходимо зарегистрироваться или войти на трекер.
Показать сообщения за:  Поле сортировки  
Начать новую тему Ответить на тему  [ 1 сообщение ] 

Часовой пояс: UTC + 3 часа


Кто сейчас на конференции

Сейчас этот форум просматривают: нет зарегистрированных пользователей и гости: 1


Вы не можете начинать темы
Вы не можете отвечать на сообщения
Вы не можете редактировать свои сообщения
Вы не можете удалять свои сообщения
Вы не можете добавлять вложения

Найти:
Перейти:  
cron
Переместиться наверх