Часовой пояс: UTC + 3 часа




Начать новую тему Ответить на тему  [ 1 сообщение ] 
Автор Сообщение
СообщениеДобавлено: 2014-03-24 01:29 
Не в сети
Аватара пользователя
Раздал: 7.39 ГБ
Скачал: 410.09 МБ
Ратио: 18.440


Зарегистрирован: 2013-03-13 21:22
Сообщения: 8121




КВН-2013. Премьер лига. 1.4 финала. Вторая игра (2013.08.10) HDTV [H.264/1080i]

#777
Режиссер / Телекомпания: Первый канал
Русское название: КВН
Год выпуска: 2013
Жанр: Телепередача

Ведущий: Александр Масляков мл.

Описание:
Что такое КВН, знают, без сомнения, все. В КВН играют во всем мире, это прежде всего молодежная игра. Постоянные конкурсные задания: "Визитная карточка", "Разминка", "Конкурс капитанов", "Музыкальный конкурс", "Домашнее задание". Игру команд оценивает профессиональное жюри — люди, у которых с чувством юмора все в порядке, многие из них раньше сами играли в КВН. Среди членов жюри были Константин Эрнст, Леонид Парфенов, Юлий Гусман, Леонид Ярмольник, Валдис Пельш, Сергей Шолохов, Геннадий Хазанов и другие. Кроме самих игр проводятся ежегодные встречи: фестиваль команд КВН (с 1990 г., семь раз фестиваль проходил в г.Сочи), музыкальный фестиваль КВН, летний кубок КВН, международные товарищеские игры в КВН. Сборная КВН играет со сборными других стран. Уже состоялись игры между сборной КВН и сборными Америки, Австралии, Израиля... Игра в КВН для многих становится профессией, а многие благодаря игре связывают жизнь с искусством. Из КВН "вышли": Леонид Якубович, Михаил Марфин, Татьяна Лазарева, Олег Филимонов, Юлий Гусман и многие другие.

Команды:
Молодость" (Красноярск), "Самоцветы-Наше серебро" (сборная Костромской губернии), Сборная университета Синергия "Горизонт" (Москва), "Саратов" (Саратов), Сборная Дагестана (Махачкала), Женская сборная ЮФУ "Ррр" (Ростов-на-Дону), "Метрополитен" (Хабаровск)

Продолжительность: 01:16:40

Видеокодек: MPEG-TS (AVC)
Битрейт видео: ~12,6 Мбит/сек
Размер кадра: 1920 x 1080
Качество видео: HDTV
Аудиокодек: MP2, 2ch.
Битрейт аудио: 192 kb/s
Формат : MPEG-TS
Размер файла : 7,23 Гбайт
Продолжительность : 1 ч. 16 м.
Общий поток : 13,5 Мбит/сек

Видео
Идентификатор : 305 (0x131)
Идентификатор меню : 1 (0x1)
Формат : AVC
Формат/Информация : Advanced Video Codec
Профиль формата : [url=mailto:High@L4.0]High@L4.0[/url]
Параметр CABAC формата : Да
Параметр ReFrames формата : 3 кадра
Идентификатор кодека : 27
Продолжительность : 1 ч. 16 м.
Битрейт : 12,6 Мбит/сек
Ширина : 1920 пикселей
Высота : 1080 пикселей
Соотношение сторон : 16:9
Частота кадров : 25,000 кадров/сек
Стандарт вещания : Component
Цветовое пространство : YUV
Субдискретизация насыщенности : 4:2:0
Битовая глубина : 8 бит
Тип развёртки : Чересстрочная
Порядок развёртки : Верхнее поле первое
Бит/(Пиксели*Кадры) : 0.244
Размер потока : 6,77 Гбайт (94%)
Основные цвета : BT.709-5, BT.1361, IEC 61966-2-4, SMPTE RP177
Характеристики трансфера : BT.709-5, BT.1361
Коэффициенты матрицы : BT.709-5, BT.1361, IEC 61966-2-4 709, SMPTE RP177

Аудио
Идентификатор : 405 (0x195)
Идентификатор меню : 1 (0x1)
Формат : MPEG Audio
Версия формата : Version 1
Профиль формата : Layer 2
Идентификатор кодека : 3
Продолжительность : 1 ч. 16 м.
Вид битрейта : Постоянный
Битрейт : 192 Кбит/сек
Каналы : 2 канала
Частота : 48,0 КГц
Метод сжатия : С потерями
Размер потока : 105 Мбайт (1%)
Язык : Russian

Текст
Идентификатор : 407 (0x197)-888
Идентификатор меню : 1 (0x1)
Формат : Teletext Subtitle
Язык : Russian
Тема сезона: Игра без границ
Жюри: Ольга Картункова, Иван Пышненко, Азамат Мусагалиев, Игорь Ласточкин, Евгений Донских

Приветствие: Кто не рискует
Метрополитен:
- пикантный подарок
- киллер чуть-чуть промахнулся
- по мотивам фильма "Хатико"
- в школе маскировки телохранителей
Горизонт:
- аудитория рекламы рингтонов
- ведущему новостей неправильно сложили листки новостей
- на программе "Что? Где? Когда?"
- заселение русских туристов в отель - глюк
- SMS-переписки
Самоцветы-Наше серебро:
- опоздавший на работу
- песня Битлз
- песня про прабабку
- песня про судебную систему
- московский погреб
- настоящее костромское привидение с пропеллером
Сборная Дагестана:
- выборы министра культуры Дагестана
- фейс-контроль в дагестанский ночной клуб
- ремейк "Крёстного отца"
- дагестанец на необитаемом острове
- тренировка "Анжи" глазами Самюэля Это`О
Молодость:
- у физрука вчера был секс
- возле банкомата
- крановщик 6 разряда возле автомата с мягкими игрушками
- обычный сибирский мужик в пенсионном фонде
- финальная битва Жана Клода Ванн-Дамма со злодеем
- обычный сибирский мужик в сауне
Саратов:
- саратовские акции
- программа "Проверка на верность" зашла слишком далеко
- интеллектуальное шоу ближайшего будущего
- окончание строительства сочинских олимпийских объектов
- пьяно-русский разговорник
Ррр:
- в отделении полиции
- одинокий отец и женщины
- девушки обиделись

Биатлон:
Вторым конкурсом традиционно стал классический биатлон. Во второй игре на вылет команды начали на тёмной ноте, плавно перешедшей в банальную перестрелку, закончившуюся состязанием голосов.

Фристайл: Своя игра
Самоцветы-Наше серебро:
- новая команда
Горизонт:
- 60-летний юбилей Ивана Дорна
Молодость:
- практиканты на обычном российском заводе
Саратов:
- следственный эксперимент по делу о коррупции
Метрополитен:
- про платное школьное образование
Ррр:
- самые светлые моменты из памяти
Сборная Дагестана:
- дагестанская лига КВН
Скриншоты:

Время раздачи: 24/7. До первых 5 скачавших.
Rip by zhenya_hacker
КВН на NoNaMe Club


У вас нет необходимых прав для просмотра вложений в этом сообщении.


Вернуться к началу
 Профиль  
Ответить с цитатой  
  • Торрент
Автор: NewsRbk Хэш: ---
Добавлен: 2014-03-24 01:20 Приватный: Нет (DHT включён)
Статус:
---
Размер: 7.23 ГБ (7 760 280 544 байт)
Изменил:
---
Скачали: 0 (Раздающих: 0%)
Причина:
---
Здоровье: 0%
Сидеров: 0 Личеров: 0
Скорость раздачи: 0 байт/сек Скорость скачивания: 0 байт/сек
Последний сидер: Нет Последний личер: Нет
Для скачивания торрента необходимо зарегистрироваться или войти на трекер.
Показать сообщения за:  Поле сортировки  
Начать новую тему Ответить на тему  [ 1 сообщение ] 

Часовой пояс: UTC + 3 часа


Кто сейчас на конференции

Сейчас этот форум просматривают: нет зарегистрированных пользователей и гости: 1


Вы не можете начинать темы
Вы не можете отвечать на сообщения
Вы не можете редактировать свои сообщения
Вы не можете удалять свои сообщения
Вы не можете добавлять вложения

Найти:
Перейти:  
cron
Переместиться наверх