Часовой пояс: UTC + 3 часа




Начать новую тему Ответить на тему  [ 1 сообщение ] 
Автор Сообщение
СообщениеДобавлено: 2014-10-06 12:22 
Не в сети
Администратор
Администратор
Аватара пользователя
Раздал: 1.21 ТБ
Скачал: 0 байт
Ратио: Seed.


Зарегистрирован: 2014-03-16 00:45
Сообщения: 2162
КВН-2014. Высшая лига. Первая 1/2


#777
Год выпуска: 2014
Страна: Россия
Жанр: Тв-шоу, юмор
Продолжительность:01:47:03
Перевод: Не требуется
Русские субтитры: нет

Дата игры: 03.10.2014
Дата эфира: 05.10.2014


Команды: КемБридж (Кемерово), Сборная Мурманска, Сборная РУДН (Москва), Сборная Чеченской Республики, Одесские мансы (Одесса)
Продолжаем соревновательную часть Высшей лиги. Сегодня мы увидим первый полуфинал, прошедший позавчера, который по определённым обстоятельствам состоит их четырёх команд вместо пяти. Игру трудно назвать неудачной, отнюдь, в ней есть масса занятного. И даже судейство выглядит довольно нормальным.

Тема сезона: Перезагрузка
Тема игры: Очевидное
Жюри: Леонид Якубович, Валдис Пельш, Дмитрий Нагиев, Михаил Галустян, Юлий Гусман

Приветствие Очевидные истины

Сборная РУДН
- президент африканского союза КВН
- что было бы, если в Москву с гор спускались тибетские монахи
- "Что? Где? Когда?" вышла на международный уровень
- Бред Питт и Анджелина Джоли усыновили ещё одного ребёнка
- репетиция оркестра объединённых наций

Сборная Мурманска
- поймали звезду
- проблемы с Андреем Малаховым
- явление ЛжеДмитрия

Сборная Чеченской Республики
- песня о чеченцах
- чеченский шпион на задании
- татаро-монгольское иго на Кавказе
- под окнами многоэтажного дома
- в студии аналитической передачи
- песня о том, как чеченцы на самом деле

КемБридж
- вёдра для жюри
- у АвтоВаза появился новый серийный автомобиль
- заседание Евросоюза ближайшей зимой
- младший брат завёл девушку
- из-за разорения туроператора тёща застряла в Египте
- мобильные игры по мотивам передач Первого канала

Биатлон Очевидно, это смешно
Стрельба команд в зал дала командам дополнительное время подготовиться к следующим конкурсам, немало повеселив зал.

СТЭМ со звездой Записки очевидца

Сборная Чеченской Республики и Отар Кушанашвили
- циркачи потеряли ноги Отара после распиливания

Сборная Мурманска и Андрей Малахов
- две Белоснежки и гномы

Сборная РУДН и Александр Ревва
- американский рабовладелец в первый день отмены рабства

КемБридж, Александр Олешко и Елена Малышева
- концертный директор эксплуатирует талант Олешко

Конкурс одной песни Очевидный хит

КемБридж
- песня о равновесии хороших и плохих событий (Алиса Фрейндлих - "У природы нет плохой погоды")

Сборная Чеченской Республики
- песня об общем чеченцев и москвичей (Рондо - "Тоже является частью вселенной")

Сборная Мурманска
- песня о том, как команда забыла написать конкурс (Игорь Корнелюк - "Там для меня горит очаг")

Сборная РУДН
- песня о родине команды (АнимациЯ - "Родина")

качество: HDTVRip-AVC
формат: MKV
видеокодек: H.264
аудиокодек: ac3
Видео: h264 720x408 25 fps 1465 kpps 0.2 bit/pixe
Аудио: Russian (ac3, 48.0 KHz, 6 ch 384 kbps)

MediaInfo
General
Unique ID : 253620393340957522756922392587612233352 (0xBECD82D12CE11094BA29300962A49E88)
Complete name : H:\трекер\KVN.2014.(10).1.1-2.HDTVRip-AVC.mkv
Format : Matroska
Format version : Version 4 / Version 2
File size : 1.38 GiB
Duration : 1h 47mn
Overall bit rate : 1 851 Kbps
Encoded date : UTC 2014-10-06 08:11:45
Writing application : mkvmerge v6.9.1 ('Blue Panther') 64bit built on Apr 18 2014 18:23:38
Writing library : libebml v1.3.0 + libmatroska v1.4.1
Attachements : cover.jpg

Video
ID : 1
Format : AVC
Format/Info : Advanced Video Codec
Format profile : High@L3.1
Format settings, CABAC : Yes
Format settings, ReFrames : 9 frames
Codec ID : V_MPEG4/ISO/AVC
Duration : 1h 47mn
Bit rate : 1 465 Kbps
Width : 720 pixels
Height : 408 pixels
Display aspect ratio : 16:9
Frame rate mode : Constant
Frame rate : 25.000 fps
Color space : YUV
Chroma subsampling : 4:2:0
Bit depth : 8 bits
Scan type : Progressive
Bits/(Pixel*Frame) : 0.199
Stream size : 1.07 GiB (77%)
Writing library : x264 core 142 r2479 dd79a61
Encoding settings : cabac=1 / ref=9 / deblock=1:-1:-1 / analyse=0x3:0x133 / me=umh / subme=11 / psy=1 / psy_rd=1.05:0.00 / mixed_ref=1 / me_range=32 / chroma_me=1 / trellis=2 / 8x8dct=1 / cqm=0 / deadzone=21,11 / fast_pskip=0 / chroma_qp_offset=-2 / threads=6 / lookahead_threads=1 / sliced_threads=0 / nr=0 / decimate=0 / interlaced=0 / bluray_compat=0 / constrained_intra=0 / bframes=8 / b_pyramid=2 / b_adapt=2 / b_bias=0 / direct=3 / weightb=1 / open_gop=0 / weightp=2 / keyint=250 / keyint_min=25 / scenecut=40 / intra_refresh=0 / rc=2pass / mbtree=0 / bitrate=1465 / ratetol=1.0 / qcomp=0.65 / qpmin=0 / qpmax=69 / qpstep=4 / cplxblur=20.0 / qblur=0.5 / ip_ratio=1.40 / pb_ratio=1.30 / aq=1:1.00
Language : Russian
Default : Yes
Forced : No

Audio
ID : 2
Format : AC-3
Format/Info : Audio Coding 3
Mode extension : CM (complete main)
Format settings, Endianness : Big
Codec ID : A_AC3
Duration : 1h 47mn
Bit rate mode : Constant
Bit rate : 384 Kbps
Channel(s) : 6 channels
Channel positions : Front: L C R, Side: L R, LFE
Sampling rate : 48.0 KHz
Bit depth : 16 bits
Compression mode : Lossy
Stream size : 294 MiB (21%)
Language : Russian
Default : Yes
Forced : No


Скриншоты



У вас нет необходимых прав для просмотра вложений в этом сообщении.


Вернуться к началу
 Профиль  
Ответить с цитатой  
  • Торрент
Автор: Consultants Хэш: ---
Добавлен: 2014-10-06 12:22 Приватный: Нет (DHT включён)
Статус:
---
Размер: 1.38 ГБ (1 485 987 433 байт)
Изменил:
---
Скачали: 0 (Раздающих: 0%)
Причина:
---
Здоровье: 0%
Сидеров: 0 Личеров: 0
Скорость раздачи: 0 байт/сек Скорость скачивания: 0 байт/сек
Последний сидер: Нет Последний личер: Нет
Для скачивания торрента необходимо зарегистрироваться или войти на трекер.
Показать сообщения за:  Поле сортировки  
Начать новую тему Ответить на тему  [ 1 сообщение ] 

Часовой пояс: UTC + 3 часа


Кто сейчас на конференции

Сейчас этот форум просматривают: нет зарегистрированных пользователей и гости: 1


Вы не можете начинать темы
Вы не можете отвечать на сообщения
Вы не можете редактировать свои сообщения
Вы не можете удалять свои сообщения
Вы не можете добавлять вложения

Найти:
Перейти:  
cron
Переместиться наверх