Часовой пояс: UTC + 3 часа




Начать новую тему Ответить на тему  [ 1 сообщение ] 
Автор Сообщение
СообщениеДобавлено: 2010-07-27 16:16 
Не в сети
Администратор
Администратор
Аватара пользователя
Раздал: 51.58 ТБ
Скачал: 620.08 ГБ
Ратио: 85.182


Зарегистрирован: 2010-11-09 02:24
Сообщения: 44655
Откуда: Земля Санникова
WSBK – 2010 – Этап 9 – ЧЕХИЯ – Гонка 1+2 Eurosport2

#777

Год выпуска: 2010
Вид спорта: SBK World Superbike
Участники: Хага и ко
Продолжительность: 58 мин + 58 мин
Комментарий: Профессиональный (двухголосый)
Язык комментариев: английский

Описание:
1-я и 2-я гонка 9-го этапа сезона, прошедшие на кольце Брно в Чехии

Доп. информация: автор не установлен

2-й гонки вытянутые в силу особенностей захвата кадра, сама видео картинка нормальная, НЕ вытянутая

Качество: PDTV
Формат: MP4/ MKV
Видео кодек: H.264
Аудио кодек: AAC

Видео/Аудио:

[font='Comic Sans MS']Раздача мультитрекерная, при нуле сидируемых можете смело вставать на закачку![/font]

Format : MPEG-4
Format profile : Base Media
Codec ID : isom
File size : 475 MiB
Duration : 58mn 57s
Overall bit rate : 1 127 Kbps
Encoded date : UTC 2010-07-10 16:14:22
Tagged date : UTC 2010-07-10 16:14:22
Video
ID : 1
Format : AVC
Format/Info : Advanced Video Codec
Format profile : High@L3.0
Format settings, CABAC : Yes
Format settings, ReFrames : 4 frames
Codec ID : avc1
Codec ID/Info : Advanced Video Coding
Duration : 58mn 57s
Bit rate mode : Variable
Bit rate : 1 000 Kbps
Maximum bit rate : 2 499 Kbps
Width : 640 pixels
Height : 368 pixels
Display aspect ratio : 16/9
Frame rate mode : Constant
Frame rate : 25.000 fps
Resolution : 24 bits
Colorimetry : 4:2:0
Scan type : Progressive
Bits/(Pixel*Frame) : 0.170
Stream size : 421 MiB (89%)
Writing library : x264 core 94 r1583M 7608d73

Audio
ID : 2
Format : AAC
Format/Info : Advanced Audio Codec
Format version : Version 4
Format profile : LC
Format settings, SBR : No
Codec ID : 67
Duration : 58mn 55s
Bit rate mode : Variable
Bit rate : 125 Kbps
Maximum bit rate : 152 Kbps
Channel(s) : 2 channels
Channel positions : L R
Sampling rate : 48.0 KHz
Resolution : 16 bits
Stream size : 52.8 MiB (11%)

Format : Matroska
File size : 687 MiB
Duration : 58mn 41s
Overall bit rate : 1 636 Kbps
Encoded date : UTC 2010-07-11 20:26:59
Writing application : mkvmerge v4.0.0 ('The Stars were mine') built on Jun 5 2010 17:44:09
Writing library : libebml v1.0.0 + libmatroska v1.0.0

Video
ID : 1
Format : AVC
Format/Info : Advanced Video Codec
Format profile : Main@L3.1
Format settings, CABAC : Yes
Format settings, ReFrames : 4 frames
Muxing mode : Container profile=Unknown@3.1
Codec ID : V_MPEG4/ISO/AVC
Duration : 58mn 42s
Width : 720 pixels
Height : 576 pixels
Display aspect ratio : 16/9
Frame rate : 50.000 fps
Standard : PAL
Resolution : 24 bits
Colorimetry : 4:2:0
Scan type : Progressive

Audio
ID : 2
Format : AAC
Format/Info : Advanced Audio Codec
Format version : Version 4
Format profile : LC
Format settings, SBR : No
Codec ID : A_AAC
Duration : 58mn 41s
Channel(s) : 2 channels
Channel positions : L R
Sampling rate : 48.0 KHz
Resolution : 16 bits




Скриншоты
[thumbnails]http://i8.fastpic.ru/big/2010/0718/a5/77cb875c55a329cd2fbd5c56e6a2c9a5.jpg[/thumbnails][thumbnails]http://i8.fastpic.ru/big/2010/0718/0d/13b62c15a5c8b60f4bd7e379ed72020d.jpg[/thumbnails][thumbnails]http://i8.fastpic.ru/big/2010/0718/a5/77cb875c55a329cd2fbd5c56e6a2c9a5.jpg[/thumbnails][thumbnails]http://i8.fastpic.ru/big/2010/0718/c0/9e04209e63c5e7126a152fd374fc95c0.jpg[/thumbnails]

[thumbnails]http://i8.fastpic.ru/big/2010/0718/ae/bf8b6bd9787165b916c32ce4275ff0ae.jpg[/thumbnails][thumbnails]http://i8.fastpic.ru/big/2010/0718/f3/aecf4c80727bfdd29bebe899612a13f3.jpg[/thumbnails][thumbnails]http://i8.fastpic.ru/big/2010/0718/d7/f305f876f3c351772f52c1aa39e93ad7.jpg[/thumbnails][thumbnails]http://i8.fastpic.ru/big/2010/0718/47/28c301101aa24b12170afd09ba263647.jpg[/thumbnails]


У вас нет необходимых прав для просмотра вложений в этом сообщении.


Вернуться к началу
 Профиль  
Ответить с цитатой  
  • Торрент
Автор: oartemka178 Хэш: ---
Добавлен: 2010-09-23 20:38 Приватный: Нет (DHT включён)
Статус:
---
Размер: 1.13 ГБ (1 218 530 086 байт)
Изменил:
---
Скачали: 0 (Раздающих: 0%)
Причина:
---
Здоровье: 0%
Сидеров: 0 Личеров: 0
Скорость раздачи: 0 байт/сек Скорость скачивания: 0 байт/сек
Последний сидер: Нет Последний личер: Нет
Для скачивания торрента необходимо зарегистрироваться или войти на трекер.
Показать сообщения за:  Поле сортировки  
Начать новую тему Ответить на тему  [ 1 сообщение ] 

Часовой пояс: UTC + 3 часа


Кто сейчас на конференции

Сейчас этот форум просматривают: нет зарегистрированных пользователей и гости: 1


Вы не можете начинать темы
Вы не можете отвечать на сообщения
Вы не можете редактировать свои сообщения
Вы не можете удалять свои сообщения
Вы не можете добавлять вложения

Найти:
Перейти:  
cron
Переместиться наверх