Часовой пояс: UTC + 3 часа




Начать новую тему Ответить на тему  [ 1 сообщение ] 
Автор Сообщение
СообщениеДобавлено: 2012-06-15 15:14 
Не в сети
Администратор
Администратор
Аватара пользователя
Раздал: 51.58 ТБ
Скачал: 620.08 ГБ
Ратио: 85.182


Зарегистрирован: 2010-11-09 02:24
Сообщения: 44625
Откуда: Земля Санникова
Турист Трофи. На Грани Возможного / TT3D: Closer to the Edge 3D

#777
Год выпуска: 2011


Страна: Великобритания


Вид спорта: Мотоспорт


Канал: --


Продолжительность: 01:43:40


Комментарий: Любительский (одноголосый) |Русский| Вадиван(русголос.рф)


Cубтитры: отсутствуют


    Участники:
  • Гай Мартин, Йен Хатчинсон, Конор Камминс, Джон МакГиннесс, Майкл Данлоп, Кейт Амор, Брюс Энсти, Джон Бартон, Пол Доббс, Камерон Дональд, Райан Фаркуар и др.



Описание: Гонки Tourist Trophy (ТТ) проводятся на острове Мэн (Великобритания) на горной трассе длиной 59,6 километра с 1907 года. Несмотря на то, что дорожные гонки сейчас проводятся в разных уголках планеты – от Бельгии до Новой Зеландии – британский остров Мэн остается настоящей Меккой подобного рода соревнований. Гонка проводится в пяти классах: TT Superbike (1000 кубиков), TT Superstock (1000 кубиков), Supersport (600сс), Senior TT (1000 кубиков) и Sidecar (с коляской) . В зависимости от класса, гонщикам нужно проехать от трех до шести 60-километровых кругов. Максимальное количество гонщиков, которые могут принять участие в каждом из классов – 85. Допускается участие одних и тех же гонщиков на одних и тех же машинах в нескольких классах (если мотоцикл соответствует требованиям этих классов).
Примечательно, что гонка проводится в одном из самых спокойных и тихих районов острова, который на две недели в году превращается из тихой английской глубинки в шумный оазис мотоциклистов. Мероприятие практически всегда проводится в последнюю неделю мая и первую неделю июня и благодаря множеству сопутствующих событий и особой атмосфере превращается в настоящий карнавал. Вдоль трассы собираются туристы, журналисты, байкеры, снимают на фото и видео, жарят шашлыки, пьют пиво, тусуются и общаются.
Tourist Trophy – не только одна из самых зрелищных, но и одна из самых опасных гонок в мире. За ее более чем столетнюю историю на острове Мэн погибли более 233 человек.



Цитата из фильма: "А если тебя это не впечатляет, то ты не живой человек, а просто дерево. Это факт"





Взято у: KorBez
Качество: BDRip 720p
Формат: AVI
Видео кодек: XviD
Аудио кодек: MP3
Видео: 1280x694/23,976 fps /5 Mbps
Аудио: 48KHz/Stereo/192 Kbps
D:\TT.Closer.to.the.Edge.720p.RUS.avi
General
Complete name : D:\TT.Closer.to.the.Edge.720p.RUS.avi
Format : AVI
Format/Info : Audio Video Interleave
Format profile : OpenDML
File size : 3.76 GiB
Duration : 1h 43mn
Overall bit rate : 5 192 Kbps
Video #0
ID : 0
Format : MPEG-4 Visual
Format profile : Advanced Simple@L5
Format settings, BVOP : 2
Format settings, QPel : No
Format settings, GMC : No warppoints
Format settings, Matrix : Default (H.263)
Muxing mode : Packed bitstream
Codec ID : XVID
Codec ID/Hint : XviD
Duration : 1h 43mn
Bit rate : 4 996 Kbps
Width : 1 280 pixels
Height : 694 pixels
Display aspect ratio : 16:9
Frame rate : 23.976 fps
Color space : YUV
Chroma subsampling : 4:2:0
Bit depth : 8 bits
Scan type : Progressive
Compression mode : Lossy
Bits/(Pixel*Frame) : 0.235
Stream size : 3.62 GiB (96%)
Writing library : XviD 64
Audio #1
ID : 1
Format : MPEG Audio
Codec ID : 55
Codec ID/Hint : MP3
Duration : 1h 43mn
Bit rate : 192 Kbps
Channel(s) : 2 channels
Sampling rate : 48.0 KHz
Compression mode : Lossy
Stream size : 142 MiB (4%)
Alignment : Aligned on interleaves
Interleave, duration : 626 ms (15.00 video frames)
[thumb]http://i25.fastpic.ru/big/2012/0611/cf/78f093baf71ee89f5c1880f748f85bcf.png[/thumb][thumb]http://i25.fastpic.ru/big/2012/0611/7d/734edb6f1a83ac1e82d0babb499c697d.png[/thumb][thumb]http://i25.fastpic.ru/big/2012/0611/1f/f5f5ff4c7ef37be3dcd944483ed2a51f.png[/thumb][thumb]http://i25.fastpic.ru/big/2012/0611/15/4cafcc6ccf065cb04807a9092ac9ae15.png[/thumb][thumb]http://i25.fastpic.ru/big/2012/0611/0a/047a968370d87a3476eabf6a0108500a.png[/thumb][thumb]http://i25.fastpic.ru/big/2012/0611/3a/39561d9a3dc598d8cbb55f802f764b3a.png[/thumb][thumb]http://i25.fastpic.ru/big/2012/0611/2f/34b9d94c23202da25aafb006dcccd32f.png[/thumb][thumb]http://i25.fastpic.ru/big/2012/0611/63/499af4b9632ff507bd97ef0c0119ae63.png[/thumb][thumb]http://i25.fastpic.ru/big/2012/0611/10/49e2d73f51dba9e0d8210f6239eaa610.png[/thumb][thumb]http://i25.fastpic.ru/big/2012/0611/60/31f44cc0c71d91fd3b964e22cafad660.png[/thumb]



У вас нет необходимых прав для просмотра вложений в этом сообщении.

_________________


Вернуться к началу
 Профиль  
Ответить с цитатой  
  • Торрент
Автор: oartemka178 Хэш: ---
Добавлен: 2012-06-15 15:14 Приватный: Нет (DHT включён)
Статус:
---
Размер: 3.76 ГБ (4 036 970 906 байт)
Изменил:
---
Скачали: 0 (Раздающих: 0%)
Причина:
---
Здоровье: 0%
Сидеров: 0 Личеров: 0
Скорость раздачи: 0 байт/сек Скорость скачивания: 0 байт/сек
Последний сидер: Нет Последний личер: Нет
Для скачивания торрента необходимо зарегистрироваться или войти на трекер.
Показать сообщения за:  Поле сортировки  
Начать новую тему Ответить на тему  [ 1 сообщение ] 

Часовой пояс: UTC + 3 часа


Кто сейчас на конференции

Сейчас этот форум просматривают: нет зарегистрированных пользователей и гости: 1


Вы не можете начинать темы
Вы не можете отвечать на сообщения
Вы не можете редактировать свои сообщения
Вы не можете удалять свои сообщения
Вы не можете добавлять вложения

Найти:
Перейти:  
Переместиться наверх