Часовой пояс: UTC + 3 часа




Начать новую тему Ответить на тему  [ 1 сообщение ] 
Автор Сообщение
СообщениеДобавлено: 2012-07-04 00:04 
Не в сети
Администратор
Администратор
Аватара пользователя
Раздал: 51.58 ТБ
Скачал: 620.08 ГБ
Ратио: 85.182


Зарегистрирован: 2010-11-09 02:24
Сообщения: 44655
Откуда: Земля Санникова
Les Mills: BodyBalance 57 - Master class
#777
Страна: New Zealand
Тематика: Фитнес
Тип раздаваемого материала: Видеоурок
Продолжительность: 00:59:50
Год выпуска: 2012
Язык: Английский
Перевод: Отсутствует
Описание: BODY BALANCE - Там, где Восток встречается с Западом. Лучшее из древнего наследия, дошедшего до нас в восточных практиках, собрано в этом уроке. Программа научит любить и уважать свое тело. Вы познаете древний язык магических упражнений, открывающих путь к согласию и гармонии. Что это? Динамичная программа, сочетающая базовые элементы таких древних дисциплин, как йога и тай-чи, и современных методик -- pilates. Контроль над дыханием, концентрация, гибкость и силовые упражнения создают целостную тренировочную систему, которая приводит душу, разум и тело в равновесие. Часовой урок состоит из последовательных комбинаций различных поз, растягиваний и упражнений на баланс. По мере овладения техникой выполнения упражнений, ваши мышцы будут становиться более гибкими и длинными. Улучшится осанка, более подтянутыми станут мышцы спины и живота. Вody Balance не только улучшает ваши физические характеристики, но и благотворно влияют на нервную систему.
Музыка здесь:
http://rustrek.ru/viewtopic.php?t=4110846
Качество: DVDRip
Формат: AVI
Видео кодек: XviD
Аудио кодек: MP3
Видео: Xvid, 688x384, 16:9, 1 494 Kbps, 29.97fps
Аудио: MPEG Audio Layer 3, 48000Hz stereo, 128kbps, 2 ch


[General
Complete name : bodybalance57.avi
Format : AVI
Format/Info : Audio Video Interleave
File size : 699 MiB
Duration : 59mn 50s
Overall bit rate : 1 634 Kbps
Writing library : The best and REALLY easy backup tool
Video
ID : 0
Format : MPEG-4 Visual
Format profile : Advanced Simple@L5
Format settings, BVOP : Yes
Format settings, QPel : No
Format settings, GMC : No warppoints
Format settings, Matrix : Default (MPEG)
Muxing mode : Packed bitstream
Codec ID : XVID
Codec ID/Hint : XviD
Duration : 59mn 50s
Bit rate : 1 494 Kbps
Width : 688 pixels
Height : 384 pixels
Display aspect ratio : 16:9
Frame rate : 29.970 fps
Resolution : 8 bits
Colorimetry : 4:2:0
Scan type : Progressive
Bits/(Pixel*Frame) : 0.189
Stream size : 639 MiB (91%)
Writing library : XviD 1.2.0.dev47 (UTC 2006-11-01)
Audio
ID : 1
Format : MPEG Audio
Format version : Version 1
Format profile : Layer 3
Mode : Joint stereo
Format_Settings_ModeExtension : MS Stereo
Codec ID : 55
Codec ID/Hint : MP3
Duration : 59mn 48s
Bit rate mode : Constant
Bit rate : 128 Kbps
Channel(s) : 2 channels
Sampling rate : 48.0 KHz
Stream size : 54.8 MiB (8%)
Alignment : Aligned on interleaves
Interleave, duration : 33 ms (1.00 video frame)
Interleave, preload duration : 504 ms
Writing library : LAME3.97
Encoding settings : -m j -V 4 -q 2 -lowpass 17 -b 128]


У вас нет необходимых прав для просмотра вложений в этом сообщении.

_________________


Вернуться к началу
 Профиль  
Ответить с цитатой  
  • Торрент
Автор: oartemka178 Хэш: ---
Добавлен: 2018-09-25 13:53 Приватный: Нет (DHT включён)
Статус:
---
Размер: 699.24 МБ (733 208 576 байт)
Изменил:
---
Скачали: 0 (Раздающих: 0%)
Причина:
---
Здоровье: 100%
Сидеров: 1 Личеров: 0
Скорость раздачи: 0 байт/сек Скорость скачивания: 0 байт/сек
Последний сидер: 27 дней 9 часов 53 минуты 43 секунды назад Последний личер: Нет
Для скачивания торрента необходимо зарегистрироваться или войти на трекер.
Показать сообщения за:  Поле сортировки  
Начать новую тему Ответить на тему  [ 1 сообщение ] 

Часовой пояс: UTC + 3 часа


Кто сейчас на конференции

Сейчас этот форум просматривают: нет зарегистрированных пользователей и гости: 1


Вы не можете начинать темы
Вы не можете отвечать на сообщения
Вы не можете редактировать свои сообщения
Вы не можете удалять свои сообщения
Вы не можете добавлять вложения

Найти:
Перейти:  
cron
Переместиться наверх
cron