Часовой пояс: UTC + 3 часа




Начать новую тему Ответить на тему  [ 1 сообщение ] 
Автор Сообщение
СообщениеДобавлено: 2012-07-04 00:04 
Не в сети
Администратор
Администратор
Аватара пользователя
Раздал: 51.58 ТБ
Скачал: 620.08 ГБ
Ратио: 85.182


Зарегистрирован: 2010-11-09 02:24
Сообщения: 44655
Откуда: Земля Санникова
Джонатан Урла / Jonathan Urla

Yogilates Basic 1 & Intermediate 1



#777
#7
Год выпуска: 2007
Страна: UК
Жанр: фитнес, пилатес
Продолжительность: 00:28:56 + 00:32:18
Язык: Английский


Описание:
Йогилатес - это вершина разумного фитнеса! Он берет все лучшее из йоги и пилатеса и соединяет это в сбалансированный комплекс упражнений. Вводя более точное осознавание дыхания и мышц ,"центра", йогилатес развивает функциональную силу всего тела. Творческий, но основанный на традициях и классических упражнениях, йогилатес представляет собой эволюцию в самостоятельной практике для всех, кто пытается восстановиться после травм, достичь баланса в развитии мышц и развить новые навыки.


Basic 1 - Созданная сертифицированным инструктором йоги и пилатеса Джонатаном Урла, эта программа подходит людям всех возрастов и любого уровня физической подготовки. Начните с самого начала с одним из лучших инструкторов!
Intermediate 1 - Йогилатес укрепит ваш "центр", выровняет и удлинит ваше тело, разовьет гибкость так, как не сделает ни одна другая техника. Присоединяйтесь к Джонатану Урла в этой укрепляющей ,"центр" последовательности.




Качество: DVDRip
Формат: AVI
Видео: XviD, 640x480 (1.33:1), 1 716 Kbps, 25.000 fps, 0.25 b/px
Аудио: MPEG-1 Audio layer 3, 128 Kbps, CBR, 48.0 KHz, 2 ch.








Очень надеялась, что данное видео - Yogilates 1 и Yogilates 2...
Но, судя по заявленной на амазоне продолжительности, данный релиз не имеет отношения к долгожданным видео...
В любом случае, считаю, что видео с Джонатаном представляет интерес, какое бы название оно не носило...





Данные части DVD не включены в релиз



Аннотация на англ. языке
Yogilates® is the ultimate in mind body fitness. It takes the best of yoga and the best of Pilates and integrates them into one balanced system of exercise. Incorporating a refined awareness of the breath and the core, Yogilates® educates as it creates functional strength for the body. Creative, yet grounded in tradition, it represents an evolution in self-practice for anyone looking to recover from injury, correct imbalances in muscular develpmment, gain new skills, and train for improved performance.

Complete name : \Jonathan Urla-Yogilates Basic & Intermediate and The Method 20_20 Integrated Yoga\VIDEO_TS\VTS_01_1.VOBFormat : MPEG-PSFile size : 1 024 MiBDuration : 1h 14mnOverall bit rate : 1 930 Kbps
VideoID : 224 (0xE0)Format : MPEG VideoFormat version : Version 2Format profile : Main@MainFormat settings, BVOP : YesFormat settings, Matrix : DefaultFormat settings, GOP : M=3, N=15Duration : 1h 14mnBit rate mode : VariableBit rate : 1 635 KbpsNominal bit rate : 8 300 KbpsWidth : 720 pixelsHeight : 480 pixelsDisplay aspect ratio : 4:3Frame rate : 29.970 fpsStandard : NTSCColor space : YUVChroma subsampling : 4:2:0Bit depth : 8 bitsScan type : InterlacedScan order : Top Field FirstBits/(Pixel*Frame) : 0.158Stream size : 868 MiB (85%)
AudioID : 128 (0x80)Format : AC-3Format/Info : Audio Coding 3Mode extension : CM (complete main)Duration : 1h 14mnBit rate mode : ConstantBit rate : 256 KbpsChannel(s) : 2 channelsChannel positions : Front: L RSampling rate : 48.0 KHzBit depth : 16 bitsVideo delay : -67msStream size : 136 MiB (13%)
Menu


За перевод аннотации спасибо Елена232425
Релиз от группы


У вас нет необходимых прав для просмотра вложений в этом сообщении.

_________________


Вернуться к началу
 Профиль  
Ответить с цитатой  
  • Торрент
Автор: oartemka178 Хэш: ---
Добавлен: 2018-09-25 13:53 Приватный: Нет (DHT включён)
Статус:
---
Размер: 773.6 МБ (811 182 080 байт)
Изменил:
---
Скачали: 0 (Раздающих: 0%)
Причина:
---
Здоровье: 100%
Сидеров: 2 Личеров: 1
Скорость раздачи: 0 байт/сек Скорость скачивания: 0 байт/сек
Последний сидер: 1 месяц 8 дней 16 часов 12 минут 7 секунд назад Последний личер: 1 месяц 8 дней 16 часов 12 минут 7 секунд назад
Для скачивания торрента необходимо зарегистрироваться или войти на трекер.
Показать сообщения за:  Поле сортировки  
Начать новую тему Ответить на тему  [ 1 сообщение ] 

Часовой пояс: UTC + 3 часа


Кто сейчас на конференции

Сейчас этот форум просматривают: нет зарегистрированных пользователей и гости: 1


Вы не можете начинать темы
Вы не можете отвечать на сообщения
Вы не можете редактировать свои сообщения
Вы не можете удалять свои сообщения
Вы не можете добавлять вложения

Найти:
Перейти:  
Переместиться наверх
cron