Часовой пояс: UTC + 3 часа




Начать новую тему Ответить на тему  [ 1 сообщение ] 
Автор Сообщение
СообщениеДобавлено: 2012-05-25 17:01 
Не в сети
Хранители
Хранители
Аватара пользователя
Раздал: 3.51 ГБ
Скачал: 1.74 ГБ
Ратио: 2.024


Зарегистрирован: 2011-11-08 20:09
Сообщения: 12155
Суперсерия 1985-86 Монреаль Канадиенс - ЦСКА
#777
31 декабря 1985 г. Монреаль. “Форум”. 17 561 зритель.
Комментарий матча на английском языке.
Мыльников; Фетисов-Касатонов, Гусаров-Стельнов, Стариков-Бабинов; Крутов-Тюменев-Макаров, Герасимов-Быков-Хомутов, Зыбин-Шепелев-Дроздецкий, Веселов-И.Гимаев-М.Васильев.
Пенни, Руа; Челиос-Карверс, Скрудленд-Свобода, Грин-Людвиг, Робинсон; Матс Нэслунд-Ришар-Смит, Далин-Момессо-Уолтер, Карбонно-Макфи-Деблуа, Нилан-Трамбле.
Матч ЦСКА против "Монреаль Канадиенс" в рамках суперсерии 1985/86 годов.
Поединок ЦСКА против "Монреаля" в рамках суперсерии состоялся 31 декабря 1985 года, ровно через 10 лет после матча этих же команд в 1975 году, который многими считается лучшим в истории хоккея. Стоит сказать, что в сезоне 1975/76 годов "Монреаль" выиграл свой первый из четырех подряд Кубков Стэнли. Как ни удивительно, но в 1985/86 команде из "Монреаля" вновь удалось выиграть Кубок, хотя в отличие от команды десятилетней давности этого никто от них не ожидал. Все-таки середина 80-х в НХЛ была эпохой "Эдмонтон Ойлерз". А что касается самого поединка, то упорным он не получился. Преимущество ЦСКА было очевидным с первой и до последней секунды. Великолепен был Сергей Макаров, сделавший хет-трик, да и остальные звенья играли отменно.




0:1 Макаров (Тюменев, Крутов, 16:29).
0:2 Веселов (Гусаров, 27:50).
0:3 Макаров (Крутов, 35:45).
0:4 И.Гимаев (Бабинов, 43:09).
0:5 Быков (Герасимов, Хомутов, 45:09).
0:6 Макаров (Тюменев, Крутов, 48:03 - бол).
1:6 Нэслунд (Смит, 48:47).


Удаления
ЦСКА: Стельнов, Васильев, Бабинов, Касатонов.
Монреаль Канадиенс: Карверс, Нилан, Нилан.

Штраф:
6 (1) - 8 (0).
Броски:
24 (6, 9, 9) - 22 (5, 9, 8).


Видео
Идентификатор : 224 (0xE0)
Формат : MPEG Video
Версия формата : Version 2
Профиль формата : Main@Main
Параметр BVOP формата : Да
Параметр матрицы формата : По умолчанию
Параметры GOP формата : M=3, N=15
Продолжительность : 39 с.
Вид битрейта : Переменный
Битрейт : 213 Мбит/сек
Номинальный битрейт : 9587 Кбит/сек
Ширина : 704 пикс.
Высота : 480 пикс.
Соотношение сторон : 4:3
Частота кадров : 29,970 кадр/сек
Стандарт вещания : NTSC
Цветовое пространство : YUV
Подвыборка цветности : 4:2:0
Битовая глубина : 8 бит
Тип развёртки : Чересстрочная
Порядок развёртки : Верхнее поле первое
Метод сжатия : С потерями
Бит/(Пиксели*Кадры) : 21.008
Размер потока : 1002 Мбайт (98%)
Аудио
Идентификатор : 189 (0xBD)-128 (0x80)
Формат : AC-3
Формат/Информация : Audio Coding 3
Расширение режима : CM (complete main)
Режим смешивания : DVD-Video
Продолжительность : 24 с.
Вид битрейта : Постоянный
Битрейт : 256 Кбит/сек
Каналы : 2 канала
Расположение каналов : Front: L R
Частота : 48,0 КГц
Битовая глубина : 16 бит
Метод сжатия : С потерями
Задержка видео : -693 мс.
Размер потока : 767 Кбайт (0%)


У вас нет необходимых прав для просмотра вложений в этом сообщении.


Вернуться к началу
 Профиль  
Ответить с цитатой  
  • Торрент
Автор: Релизер Хэш: ---
Добавлен: 2012-05-25 21:40 Приватный: Нет (DHT включён)
Статус:
---
Размер: 3.93 ГБ (4 214 697 984 байт)
Изменил:
---
Скачали: 0 (Раздающих: 0%)
Причина:
---
Здоровье: 0%
Сидеров: 0 Личеров: 0
Скорость раздачи: 0 байт/сек Скорость скачивания: 0 байт/сек
Последний сидер: Нет Последний личер: Нет
Для скачивания торрента необходимо зарегистрироваться или войти на трекер.
Показать сообщения за:  Поле сортировки  
Начать новую тему Ответить на тему  [ 1 сообщение ] 

Часовой пояс: UTC + 3 часа


Кто сейчас на конференции

Сейчас этот форум просматривают: нет зарегистрированных пользователей и гости: 1


Вы не можете начинать темы
Вы не можете отвечать на сообщения
Вы не можете редактировать свои сообщения
Вы не можете удалять свои сообщения
Вы не можете добавлять вложения

Найти:
Перейти:  
cron
Переместиться наверх