Часовой пояс: UTC + 3 часа




Начать новую тему Ответить на тему  [ 1 сообщение ] 
Автор Сообщение
 Заголовок сообщения: Олимпиада 1980 СССР-Канада [20.02.1980]
СообщениеДобавлено: 2012-05-25 17:16 
Не в сети
Хранители
Хранители
Аватара пользователя
Раздал: 3.51 ГБ
Скачал: 1.74 ГБ
Ратио: 2.024


Зарегистрирован: 2011-11-08 20:09
Сообщения: 12155
Олимпиада 1980 СССР-Канада
20.02.1980. г. Лейк-Плэсид. Олимпийские игры'80.
Комментарий матча на английском языке.
#777
USSR: Valeri Harlamov 3+8, Vladimir Petrov 4+2, Boris Mihailov 6+5, Aleksander Skvortsov 2+5, Viktor Zluktov 3+7, Helmut Balderis 5+4, Sergei Makarov 5+6, Vladimir Golikov 2+5, Aleksander Golikov 7+6, Juri Lebedev 3+5, Aleksander Maltsev 6+4, Vjatseslav Fetisov 5+4, Aleksei Kasatonov 2+5, Sergei Starikov 1+6, Valeri Vasiljev 2+1, Zinetula Biljaletdinov 1+3, Vladimir Krutov 6+5, Vasili Pervuhin 0+9.
Canada: John Devaney 4+3, Kevin Primeau 4+1, David Hindmarch 3+4, Ken Berry 4+1, Paul McLean 2+3, Jim Nill 1+2, Ron Davidson 1+4, Glenn Anderson 2+2, Stelio Zupancic 1+3, Daniel D’Avise 3+3, Warren Anderson 1+0, Randy Gregg 1+1, Brad Pirie 1+2, Timothy Waters 1+1, Kevin Maxwell 0+5, Don Spring 0+1, Joe Grant 0+1.
США (Лейк-Плэсид), 12 - 24 февраля 1980 г. Лейк-Плэсид стал местом рождения американского чуда. Главный архитектор триумфа Херб Брукс, который возглавляет и нынешнюю олимпийскую сборную США, привез команду из студентов, чей средний возраст едва превышал 20 лет. Но юные искатели знаний совершили невозможное — укротили советского монстра. 22 февраля 1980 года вошло в анналы хоккейной истории как день великой американской победы. В первом периоде соперники обменялись двойными уколами, причем Марк Джонсон отличился всего за секунду до перерыва, и Владислав Третьяк уступил место в воротах Владимиру Мышкину. После перерыва наши снова вышли вперед благодаря усилиям Александра Мальцева. Но на 49-й минуте тот же Джонсон восстановил равновесие, и почти тут же Майк Эрузионе провел решающую шайбу. В последней встрече сборная США одолела финнов. Победителей чествовали на родине как национальных героев. Большинство из них вскоре оказались в НХЛ, где многие сделали звездную карьеру. Скажем, защитник Кен Морроу в составе "Айлендерс" заработал четыре перстня обладателя Кубка Стэнли. А автор золотой шайбы в игре с нашими Эрузионе продал на аукционе за баснословную сумму картину в стиле "авангард", которую намалевал… той самой счастливой клюшкой. После этого триумфа Америка влюбилась в хоккей.


СССР — Канада — 6:4 (1:1, 1:2, 4:1)

Видео
Идентификатор : 224 (0xE0)
Формат : MPEG Video
Версия формата : Version 2
Профиль формата : Main@Main
Параметр BVOP формата : Да
Параметр матрицы формата : По умолчанию
Параметр GOP формата : M=3, N=15
Продолжительность : 14 с.
Вид битрейта : Переменный
Битрейт : 581 Мбит/сек
Максимальный битрейт : 9587 Кбит/сек
Ширина : 704 пикселя
Высота : 480 пикселей
Соотношение сторон : 4:3
Частота кадров : 29,970 кадров/сек
Стандарт вещания : NTSC
Цветовое пространство : YUV
Субдискретизация насыщенности : 4:2:0
Битовая глубина : 8 бит
Тип развёртки : Чересстрочная
Порядок развёртки : Верхнее поле первое
Метод сжатия : С потерями
Бит/(Пиксели*Кадры) : 57.373
Размер потока : 1003 Мбайт (98%)
Основные цвета : SMPTE 170M
Характеристики трансфера : SMPTE 170M
Коэффициенты матрицы : SMPTE 170M
Аудио
Идентификатор : 189 (0xBD)-128 (0x80)
Формат : AC-3
Формат/Информация : Audio Coding 3
Расширение режима : CM (complete main)
Режим смешивания : DVD-Video
Продолжительность : 14 с.
Вид битрейта : Постоянный
Битрейт : 256 Кбит/сек
Каналы : 2 канала
Расположение каналов : Front: L R
Частота : 48,0 КГц
Битовая глубина : 16 бит
Метод сжатия : С потерями
Задержка видео : -581 мс.
Размер потока : 453 Кбайт (0%)

*Статистическое описание взял с форума хоккейной статистики от товарища sergsvist.За что выражаю благодарность в проделанной работе!


У вас нет необходимых прав для просмотра вложений в этом сообщении.


Вернуться к началу
 Профиль  
Ответить с цитатой  
  • Торрент
Автор: Релизер Хэш: ---
Добавлен: 2012-05-25 21:40 Приватный: Нет (DHT включён)
Статус:
---
Размер: 4.01 ГБ (4 301 434 880 байт)
Изменил:
---
Скачали: 1 (Раздающих: 0%)
Причина:
---
Здоровье: 0%
Сидеров: 0 Личеров: 0
Скорость раздачи: 0 байт/сек Скорость скачивания: 0 байт/сек
Последний сидер: Нет Последний личер: Нет
Для скачивания торрента необходимо зарегистрироваться или войти на трекер.
Показать сообщения за:  Поле сортировки  
Начать новую тему Ответить на тему  [ 1 сообщение ] 

Часовой пояс: UTC + 3 часа


Кто сейчас на конференции

Сейчас этот форум просматривают: нет зарегистрированных пользователей и гости: 1


Вы не можете начинать темы
Вы не можете отвечать на сообщения
Вы не можете редактировать свои сообщения
Вы не можете удалять свои сообщения
Вы не можете добавлять вложения

Найти:
Перейти:  
cron
Переместиться наверх