Часовой пояс: UTC + 3 часа




Начать новую тему Ответить на тему  [ 1 сообщение ] 
Автор Сообщение
СообщениеДобавлено: 2012-05-25 17:16 
Не в сети
Хранители
Хранители
Аватара пользователя
Раздал: 3.51 ГБ
Скачал: 1.74 ГБ
Ратио: 2.024


Зарегистрирован: 2011-11-08 20:09
Сообщения: 12155
Клубная Cуперсерия 1989-90 годов "“Сокол” Киев - “Калгари Флеймз”
16 сентября 1989 г. Киев. “Дворец Спорта”. 6 900 зрителей.
Судья: Ю.Липа (ЧССР), С.Бервенский, Н.Разумович (СССР)
#777
Комментарий матча на английском языке.
Составы команд:
“Сокол”: Шундров (Самойлов, 31 мин); Овчинников (2) - Зиновьев, Годынюк (2) - Горбушин, Ширяев - Лубнин, Кровяков;
Степанищев (2) - Малков - Калабухов (2), Синьков - Найда - Ботвинко, Юлдашев - Христич - Бурханов, Алипов - Василенко - Олецкий.

“Калгари Флеймз”: Уомсли (Геннет, 34 мин); Р.Юханссон (2) - Мурзин, Маккримон (2) - Сабурин, Сутер - Наттрис, Макиннис;
Макаров - Ньюйндайк - Робертс, Пряхин - Гилмор (2) - Маклеллан (2), Грдина - Флери (4) - Рэнхейм, М.Хантер - Отто (2) - Пеплински, Т.Хантер.

“Калгари”, “Вашингтон” нанесли ответный визит в Советский Союз.
Впервые в истории матчей между профессионалами Северной Америки и “любителями” СССР, две команды НХЛ посетили Советский Союза перед началом регулярного сезона, проведя в общей сложности.
“Калгари Флйэмз” и “Вашингтон Кэпиталз” неожиданно легко выиграли серию с общим счетом +6=0-2, проиграв лишь супер-грандам – ЦСКА и “Динамо” М.
Зимой четыре советских команды провели в общей сложности 21 матч, +11=1-9 . Результаты команд: “Химик” +3=0-3, “Крылья Советов” +1=1-3, ЦСКА +4=0-1, “Динамо” М +3=0-2.
Кстати фактически после 89-90 суперсерии из наших клубов стали уходить в НХЛ многие известные хоккеисты...

Сергей Федоров, нападающий – “Детройт”
Павел Буре, нападающий – “Ванкувер”.
Анатолий Семенов, нападающий – “Эдмонтон”
Сергей Мыльников, вратарь – “Квебек”
Сергей Яшин, нападающий – “Эдмонтон”
Сергей Стариков, защитник – “Нью Джерси”
Вячеслав Быков, нападающий – “Квебек Нордикс”
Андрей Хомутов, нападающий – “Квебек Нордикс”
Владимир Малахов, защитник – “НЙ Айлендерс”
Артурс Ирбе, вратарь – “Миннесота Норс Старс”
Роман Оксюта, нападающий – “НЙ Рэйнджерс"
Владимир Константинов, защитник – “Детройт”
Андрей Сидоров, нападающий – “Вашингтон”
Александр Юдин, защитник – “Калгари”
Евгений Давыдов, нападающий – “Виннипег”
Хельмут Балдерис, нападающий – “Миннесота Норс Старс”
Сергей Харин, нападающий – “Виннипег”.



Сокол (Киев) - Калгари Флэймз [color=red]2:5 (0:2, 2:2, 0:1)[/color]
Шайбы:
0:1 Пряхин (Ньювендайк, Маклеллан, 05:59)
0:2 М.Хантер (Пеплински, Гилмур 17:32)
1:2 Найда (Синьков, 21:36)
1:3 Мурзин (Макаров, 24:06)
2:3 Зиновьев (Степанищев, Юлдашев, 26:17 бол.)
2:4 Флери (Макиннис, 31:01 бол.)
2:5 М.Хантер (56:50 бол.)
Штраф:
8 (2) - 14 (1).


Видео
Идентификатор : 224 (0xE0)
Формат : MPEG Video
Версия формата : Version 2
Профиль формата : Main@Main
Параметр BVOP формата : Да
Параметр матрицы формата : Выборочная
Параметр GOP формата : M=3, N=12
Продолжительность : 13 с.
Вид битрейта : Переменный
Битрейт : 589 Мбит/сек
Максимальный битрейт : 9586 Кбит/сек
Ширина : 704 пикселя
Высота : 576 пикселей
Соотношение сторон : 4:3
Частота кадров : 25,000 кадров/сек
Стандарт вещания : PAL
Цветовое пространство : YUV
Субдискретизация насыщенности : 4:2:0
Битовая глубина : 8 бит
Тип развёртки : Чересстрочная
Порядок развёртки : Верхнее поле первое
Метод сжатия : С потерями
Бит/(Пиксели*Кадры) : 58.098
Размер потока : 980 Мбайт (96%)
Основные цвета : BT.470-2 System B, BT.470-2 System G
Характеристики трансфера : BT.470-2 System B, BT.470-2 System G
Коэффициенты матрицы : BT.470-2 System B, BT.470-2 System G
Аудио
Идентификатор : 189 (0xBD)-128 (0x80)
Формат : AC-3
Формат/Информация : Audio Coding 3
Расширение режима : CM (complete main)
Режим смешивания : DVD-Video
Продолжительность : 14 с.
Вид битрейта : Постоянный
Битрейт : 256 Кбит/сек
Каналы : 2 канала
Расположение каналов : Front: L R
Частота : 48,0 КГц
Битовая глубина : 16 бит
Метод сжатия : С потерями
Задержка видео : -328 мс.
Размер потока : 447 Кбайт (0%)

*Статистическое описание взял с форума хоккейной статистики от товарища ДмитРэйБред и сайта Хоккейные Архивы.За что выражаю благодарность в проделанной работе!


У вас нет необходимых прав для просмотра вложений в этом сообщении.


Вернуться к началу
 Профиль  
Ответить с цитатой  
  • Торрент
Автор: Релизер Хэш: ---
Добавлен: 2012-05-25 17:17 Приватный: Нет (DHT включён)
Статус:
---
Размер: 4.01 ГБ (4 308 279 296 байт)
Изменил:
---
Скачали: 0 (Раздающих: 0%)
Причина:
---
Здоровье: 0%
Сидеров: 0 Личеров: 0
Скорость раздачи: 0 байт/сек Скорость скачивания: 0 байт/сек
Последний сидер: Нет Последний личер: Нет
Для скачивания торрента необходимо зарегистрироваться или войти на трекер.
Показать сообщения за:  Поле сортировки  
Начать новую тему Ответить на тему  [ 1 сообщение ] 

Часовой пояс: UTC + 3 часа


Кто сейчас на конференции

Сейчас этот форум просматривают: нет зарегистрированных пользователей и гости: 1


Вы не можете начинать темы
Вы не можете отвечать на сообщения
Вы не можете редактировать свои сообщения
Вы не можете удалять свои сообщения
Вы не можете добавлять вложения

Найти:
Перейти:  
cron
Переместиться наверх