Часовой пояс: UTC + 3 часа




Начать новую тему Ответить на тему  [ 1 сообщение ] 
Автор Сообщение
СообщениеДобавлено: 2012-05-25 17:16 
Не в сети
Хранители
Хранители
Аватара пользователя
Раздал: 3.51 ГБ
Скачал: 1.74 ГБ
Ратио: 2.024


Зарегистрирован: 2011-11-08 20:09
Сообщения: 12155
Суперсерия 1982-1983 Эдмонтон Ойлерз-СССР
28.12.1982. г. Эдмонтон. Арена "Northlands Coliseum" 17498 зрителя.
Комментарий матча на английском языке.
Судья: Ван Хеллемонд (НХЛ), Нокс (НХЛ), Миттон (НХЛ)
#777
СССР: Мышкин; Фетисов-Касатонов, Билялетдинов-Первухин, С. Гимаев-Бабинов, Крутов-Ларионов-Мальцев, Герасимов-Быков-М. Васильев, Капустин-Шепелев-Шалимов, Скворцов-Жлуктов-Кожевников.
Эдмонтон Ойлерз: Фюр, Р. Лоу, Муг; Коффи-Фоголин, Грегг-Хадди, Ларивьер-К. Лоу; Бошмен-Гретцки-Линсдмэн, Унгер-Андерсон-Хьюг, Курри-Ламли-Роулстон, Хантер-Мессье-Поузар, Семенко.
Суперсерия 1982/83. 1-й матч.По утверждению Гретски - мы готовы встретить русских,у нас великолепная защита и мы делаем ставку на скорость!! Что ж.... смотрим и болеем за наших ...
После матча с «Эдмонтон Ойлерс» в Москву отправлен Мальцев, получивший серьезную травму в игре.



10:28 1-0 Андерсон (Мессье, Грегг)
30:24 2-0 Гретцки (Андерсон, Мессье, бол.)
34 2-1 Капустин (Билялетдинов, Шалимов)
47 2-2 Кожевников (Жлуктов, Гимаев)
49 3-2 Мессье (Андерсон, Ларивьер)
52 4-2 Гретцки (Коффи, бол.)
55 4-3 Шепелев (Шалимов, Капустин)
Броски по воротам: 17+6+9=32 — 6+12+17=35




Видео
Идентификатор : 224 (0xE0)
Формат : MPEG Video
Версия формата : Version 2
Профиль формата : Main@Main
Параметр BVOP формата : Да
Параметр матрицы формата : По умолчанию
Параметры GOP формата : M=3, N=15
Продолжительность : 47 с.
Вид битрейта : Переменный
Битрейт : 176 Мбит/сек
Номинальный битрейт : 9587 Кбит/сек
Ширина : 704 пикс.
Высота : 480 пикс.
Соотношение сторон : 4:3
Частота кадров : 29,970 кадр/сек
Стандарт вещания : NTSC
Цветовое пространство : YUV
Подвыборка цветности : 4:2:0
Битовая глубина : 8 бит
Тип развёртки : Чересстрочная
Порядок развёртки : Верхнее поле первое
Метод сжатия : С потерями
Бит/(Пиксели*Кадры) : 17.363
Размер потока : 1002 Мбайт (98%)
Аудио
Идентификатор : 189 (0xBD)-128 (0x80)
Формат : AC-3
Формат/Информация : Audio Coding 3
Расширение режима : CM (complete main)
Режим смешивания : DVD-Video
Продолжительность : 28 с.
Вид битрейта : Постоянный
Битрейт : 256 Кбит/сек
Каналы : 2 канала
Расположение каналов : Front: L R
Частота : 48,0 КГц
Битовая глубина : 16 бит
Метод сжатия : С потерями
Задержка видео : -67 мс.
Размер потока : 905 Кбайт (0%)


У вас нет необходимых прав для просмотра вложений в этом сообщении.


Вернуться к началу
 Профиль  
Ответить с цитатой  
  • Торрент
Автор: Релизер Хэш: ---
Добавлен: 2012-05-25 17:17 Приватный: Нет (DHT включён)
Статус:
---
Размер: 4.01 ГБ (4 305 022 976 байт)
Изменил:
---
Скачали: 0 (Раздающих: 0%)
Причина:
---
Здоровье: 0%
Сидеров: 0 Личеров: 0
Скорость раздачи: 0 байт/сек Скорость скачивания: 0 байт/сек
Последний сидер: Нет Последний личер: Нет
Для скачивания торрента необходимо зарегистрироваться или войти на трекер.
Показать сообщения за:  Поле сортировки  
Начать новую тему Ответить на тему  [ 1 сообщение ] 

Часовой пояс: UTC + 3 часа


Кто сейчас на конференции

Сейчас этот форум просматривают: нет зарегистрированных пользователей и гости: 1


Вы не можете начинать темы
Вы не можете отвечать на сообщения
Вы не можете редактировать свои сообщения
Вы не можете удалять свои сообщения
Вы не можете добавлять вложения

Найти:
Перейти:  
Переместиться наверх