Часовой пояс: UTC + 3 часа




Начать новую тему Ответить на тему  [ 1 сообщение ] 
Автор Сообщение
СообщениеДобавлено: 2014-10-18 13:12 
Не в сети
Администратор
Администратор
Аватара пользователя
Раздал: 51.58 ТБ
Скачал: 620.08 ГБ
Ратио: 85.182


Зарегистрирован: 2010-11-09 02:24
Сообщения: 44625
Откуда: Земля Санникова
Человек Эротичный / Homo Eroticus


#777
Страна: Италия, Франция
Жанр: трагикомедия
Год выпуска: 1971
Продолжительность: 01:49:34

Перевод: Одноголосый закадровый Ghostface
Cубтитры: японские (hard)

Режиссер: Марко Викарио / Marco Vicario

В ролях: Ландо Будзанка, Россана Подеста, Сильва Кошина, Лучано Сальче, Адриана Асти, Айра фон Фюрстенберг, Эви Маранди, Бриджит Скай, Анджела Луче, Феми Бенусси, Сандро Дори, Симонетта Стефанелли, Паола Тедеско, Бернар Блие

Описание: Микеле (Ландо Будзанка), обладающий феноменальным мужским потенциалом, вынужден бежать с Сицилии в Бергамо от разгневанных родственников женщин, с которыми у него были мимолетные романы. По протекции дядюшки, он устраивается слугой в богатую семью, но и здесь эротические приключения не заставляют себя ждать. Узнав о его "скрытых возможностях" богатые дамочки, уставшие от своих беспомощных мужей, выстраиваются в очередь, желая заполучить Микеле в свою собственность.

Доп. информация: На всех сайтах указано,что это DVDRip, но наличие японского хардсаба позволяет в этом усомниться, а файл без хардсаба мне найти не удалось.
Качество рипа оставляет желать лучшего, поэтому перед скачиванием фильма качайте сэмпл.

Сэмпл: http://multi-up.com/1006865

17+

Качество видео: DVDRip
Формат видео: AVI

Видео: 704x352 (2.00:1), 25 fps, XviD build 47 ~1574 kbps avg, 0.25 bit/pixel
Аудио: 48 kHz, MPEG Layer 3, 2 ch, ~192.00 kbps avg
Формат субтитров: hardsub (неотключаемые)

MediaInfo
Format : AVI
Format/Info : Audio Video Interleave
File size : 1.36 GiB
Duration : 1h 49mn
Overall bit rate : 1 777 Kbps
Writing application : VirtualDubMod 1.5.10.2 (build 2540/release)
Writing library : VirtualDubMod build 2540/release

Video
ID : 0
Format : MPEG-4 Visual
Format profile : Advanced Simple@L5
Format settings, BVOP : 1
Format settings, QPel : No
Format settings, GMC : No warppoints
Format settings, Matrix : Default (MPEG)
Codec ID : XVID
Codec ID/Hint : XviD
Duration : 1h 49mn
Bit rate : 1 575 Kbps
Width : 704 pixels
Height : 352 pixels
Display aspect ratio : 2.000
Frame rate : 25.000 fps
Color space : YUV
Chroma subsampling : 4:2:0
Bit depth : 8 bits
Scan type : Progressive
Compression mode : Lossy
Bits/(Pixel*Frame) : 0.254
Stream size : 1.21 GiB (89%)
Writing library : XviD 1.2.0.dev47 (UTC 2006-11-01)

Audio
ID : 1
Format : MPEG Audio
Format version : Version 1
Format profile : Layer 3
Mode : Joint stereo
Codec ID : 55
Codec ID/Hint : MP3
Duration : 1h 49mn
Bit rate mode : Constant
Bit rate : 192 Kbps
Channel(s) : 2 channels
Sampling rate : 48.0 KHz
Compression mode : Lossy
Stream size : 150 MiB (11%)
Alignment : Aligned on interleaves
Interleave, duration : 40 ms (1.00 video frame)
Interleave, preload duration : 504 ms


Скриншот c названием фильма



Скриншоты






Огромное спасибо Ghostface
за перевод и озвучивание фильма!


У вас нет необходимых прав для просмотра вложений в этом сообщении.


Вернуться к началу
 Профиль  
Ответить с цитатой  
  • Торрент
Автор: oartemka178 Хэш: ---
Добавлен: 2014-10-18 13:12 Приватный: Нет (DHT включён)
Статус:
---
Размер: 1.36 ГБ (1 460 160 512 байт)
Изменил:
---
Скачали: 0 (Раздающих: 0%)
Причина:
---
Здоровье: 0%
Сидеров: 0 Личеров: 0
Скорость раздачи: 0 байт/сек Скорость скачивания: 0 байт/сек
Последний сидер: Нет Последний личер: Нет
Для скачивания торрента необходимо зарегистрироваться или войти на трекер.
Показать сообщения за:  Поле сортировки  
Начать новую тему Ответить на тему  [ 1 сообщение ] 

Часовой пояс: UTC + 3 часа


Кто сейчас на конференции

Сейчас этот форум просматривают: нет зарегистрированных пользователей и гости: 1


Вы не можете начинать темы
Вы не можете отвечать на сообщения
Вы не можете редактировать свои сообщения
Вы не можете удалять свои сообщения
Вы не можете добавлять вложения

Найти:
Перейти:  
Переместиться наверх